<?xml version="1.0" standalone="no"?>
<!DOCTYPE svg PUBLIC "-//W3C//DTD SVG 1.1//EN" "http://www.w3.org/Graphics/SVG/1.1/DTD/svg11.dtd" >
<svg xmlns="http://www.w3.org/2000/svg">
<metadata>
This is a custom SVG webfont generated by Font Squirrel.
Copyright   : COPYRIGHT 1992 COMPUGRAPHIC CORPORATION ALL RIGHTS RESERVED Corrections kerning sidebearing cyrillic letters from SPSL Copyright c 1995 SPSL
</metadata>
<defs>
<font id="webfontfP3pcuhW" horiz-adv-x="909" >
<font-face units-per-em="2048" ascent="1513" descent="-535" />
<missing-glyph horiz-adv-x="454" />
<glyph unicode=" "  horiz-adv-x="454" />
<glyph unicode="&#x09;" horiz-adv-x="454" />
<glyph unicode="&#xa0;" horiz-adv-x="454" />
<glyph unicode="!" horiz-adv-x="493" d="M311 362h-131v187q0 184 -43 340l-37 141q-23 84 -22 152q0 86 39 155q47 86 129 86q84 0 131 -86q39 -70 39 -151q0 -72 -23 -156l-39 -141q-43 -164 -43 -340v-187zM92 141q0 57 37 101q47 53 117 53q66 0 109.5 -45t43.5 -108.5t-44 -108.5t-109.5 -45t-109.5 45 t-44 108z" />
<glyph unicode="&#x22;" d="M256 827l-63 439q-6 49 -7 77q0 106 107 107q104 0 104 -107q0 -29 -6 -77l-63 -439h-72zM584 827l-64 439q-6 49 -6 77q0 106 104 107q106 0 107 -107q0 -29 -6 -77l-66 -439h-69z" />
<glyph unicode="#" d="M43 0l119 494l-131 -17v148l166 20l36 156l-202 -27v148l239 30l113 471h162l-109 -450l170 20l103 430h161l-96 -407l131 16v-147l-168 -21l-37 -153l205 24v-145l-241 -31l-134 -559h-161l129 537l-170 -21l-123 -516h-162zM365 668l167 20l39 154l-170 -21z" />
<glyph unicode="$" d="M401 219v438l-59 37l-59 35q-57 35 -113 84q-100 86 -100 221q0 72 30 135q78 152 301 183v71h105v-69l16 -2q98 -12 178 -60q119 -76 119 -192q0 -49 -24 -86q-41 -68 -115 -68q-33 0 -66 19q-66 37 -65 102q0 27 12 51q29 53 86 53q25 0 49 -16q-31 72 -170 88l-20 2 v-391l51 -31l53 -30q72 -45 119 -86q125 -102 125 -256q0 -102 -49 -181q-92 -145 -299 -161v-134h-105v134q-104 0 -196 49q-156 84 -156 233q0 51 25 98q41 72 116 72q39 0 72 -18q57 -37 57 -111q0 -37 -14 -65q-27 -51 -80 -52q-16 0 -41 9q94 -105 217 -105zM506 594 v-367l18 6q51 16 84 61.5t33 98.5q0 109 -117 189zM401 918v319l-18 -6q-102 -35 -102 -148q0 -88 110 -159z" />
<glyph unicode="%" horiz-adv-x="1366" d="M711 346q0 125 37 225q55 150 219 150q72 0 120 -31q133 -78 134 -330q0 -387 -254 -387q-72 0 -121 31q-135 80 -135 342zM887 346q0 -213 49 -250q14 -10 31 -10q61 0 71 125q6 72 6 135q0 219 -47 252q-14 10 -30 10q-59 0 -72 -125q-8 -65 -8 -137zM897 1339 q-84 -70 -178 -69q-37 0 -105 20l7 -33q20 -100 20 -198q0 -113 -37 -207q-55 -150 -219 -150q-70 0 -121 31q-133 84 -133 330q0 387 258 387q70 0 133 -33q100 -55 205 -55q117 0 217 88h129l-678 -1477h-125zM307 1075q0 -213 47 -250q10 -10 31 -10q61 0 74 125 q6 72 6 135q0 215 -47 252q-10 8 -33 8q-59 0 -72 -123q-6 -74 -6 -137z" />
<glyph unicode="&#x26;" horiz-adv-x="1290" d="M1147 397h119v-53q0 -371 -277 -371q-104 0 -188 64l-8 6l-15 -8q-111 -61 -272 -62q-203 0 -316 111q-125 119 -124 293q0 82 26 143q55 127 217 258l8 6l-4 13q-72 172 -71 290q0 158 92 259q96 104 239 104q76 0 146 -35q127 -66 127 -219q0 -80 -35 -149 q-45 -98 -184 -222l-54 -47l5 -10l88 -164q109 -193 176 -285l6 -10l6 10q53 94 53 193q0 53 -14 74q-20 29 -82 28h-43v164h412v-164h-43q-31 0 -45 -8q-35 -16 -41 -96q-12 -164 -88 -289l-19 -31q37 -53 88 -53q115 0 115 211v49zM395 618l-8 -8q-80 -90 -80 -196 q0 -115 78 -199q76 -78 190 -78q53 0 97 17l12 4l-8 8q-104 129 -215 332zM500 928l8 8q109 88 143 147q23 39 23 86q0 76 -60 105q-25 12 -53 12q-74 0 -100 -63q-16 -35 -17 -82q0 -88 50 -201z" />
<glyph unicode="'" horiz-adv-x="454" d="M205 827l-66 439q-6 49 -6 77q0 106 107 107q104 0 104 -107q0 -29 -6 -77l-64 -439h-69z" />
<glyph unicode="(" horiz-adv-x="454" d="M295 1423h164l-30 -65l-23 -53q-8 -18 -13 -27q-82 -195 -121 -393q-43 -221 -43 -440.5t43 -440.5q39 -199 121 -393l13 -27l23 -53l30 -66h-164q-143 180 -209 392q-92 289 -92 587.5t92 587.5q68 213 209 391z" />
<glyph unicode=")" horiz-adv-x="454" d="M154 1423q141 -178 208 -391q90 -287 90.5 -588t-90.5 -587q-68 -211 -208 -392h-164q39 78 65 146q84 199 119 393q43 231 43 440t-43 441q-35 195 -119 393q-45 104 -65 145h164z" />
<glyph unicode="*" d="M133 862l168 51q70 23 70 48q0 33 -70 51l-168 49q-106 35 -106 106q0 16 10 41q29 53 82 54q49 0 108 -60l121 -127q4 -2 11.5 -8t11.5 -10q23 -16 39 -17q27 0 26 43q0 16 -4 33l-45 178q-10 47 -10 66q0 20 12 45q27 45 82 45q29 0 49 -12q43 -29 43 -78 q0 -18 -10 -66l-45 -178q-4 -16 -4 -33q0 -43 28 -43q25 0 60 35l123 127q55 59 106 60q29 0 51 -17q41 -29 41 -78q0 -72 -106 -106l-168 -49q-70 -18 -70 -49q0 -27 70 -50l168 -51q106 -29 106 -104q0 -18 -10 -43q-25 -53 -82 -53q-51 0 -106 59l-123 127q-35 37 -60 37 q-29 0 -28 -45q0 -12 4 -33l45 -176q10 -47 10 -68q0 -18 -12 -43q-20 -45 -82 -45q-27 0 -49 12q-43 29 -43 76q0 20 10 68l45 176q4 20 4 33q0 45 -26 45q-20 0 -62 -37l-121 -127q-59 -59 -106 -59q-27 0 -53 16q-41 31 -41 80q0 73 106 104z" />
<glyph unicode="+" horiz-adv-x="1366" d="M111 793h489v493h164v-493h491v-164h-491v-492h-164v492h-489v164z" />
<glyph unicode="," horiz-adv-x="454" d="M129 -283l-70 103q121 84 154 180q-66 0 -105.5 34t-39.5 93q0 74 43 116t104 42q74 0 117 -51.5t43 -129.5q0 -92 -56 -190q-65 -111 -190 -197z" />
<glyph unicode="-" horiz-adv-x="454" d="M68 645h319v-178h-319v178z" />
<glyph unicode="." horiz-adv-x="454" d="M68 141.5q0 63.5 44 108.5t109.5 45t109.5 -45t44 -108.5t-44 -108.5t-109.5 -45t-109.5 45t-44 108.5z" />
<glyph unicode="/" horiz-adv-x="454" d="M35 -27l256 1477h149l-250 -1477h-155z" />
<glyph unicode="0" d="M53 768q0 215 19.5 340t83.5 207q106 135 299 135q188 0 295 -127q59 -72 82.5 -191.5t23.5 -363.5v-113q0 -215 -19.5 -340t-82.5 -206q-106 -135 -299 -136q-197 0 -299 136q-57 76 -80 195.5t-23 350.5v113zM326 836v-248q0 -287 34 -393q25 -74 94.5 -74t94.5 74 q35 106 35 393v248q0 287 -35 393q-25 74 -94.5 74t-94.5 -74q-34 -106 -34 -393z" />
<glyph unicode="1" d="M186 1262q158 0 230 41q49 31 86 120h116v-1206q0 -70 66 -70h64v-147h-562v147h101q66 0 65 70v897h-166v148z" />
<glyph unicode="2" d="M27 0q0 41 8 106q23 213 106 353q45 80 138 168l167 168q145 145 146 290q0 66 -31 119q-53 98 -166 99q-145 0 -190 -136q25 27 57 27q35 0 64 -16q63 -39 63 -111q0 -39 -20 -72q-43 -76 -133 -75q-45 0 -84 20q-88 55 -89 180q0 170 166 269q102 61 222 61 q123 0 229 -64q184 -109 184 -311q0 -215 -231 -383l-184 -133q-170 -123 -230 -244q-16 -35 -35 -116q74 72 142 71q23 0 128 -15t140 -15q39 0 70 18q82 49 81 166v47h132v-51q0 -68 -11 -156q-37 -291 -235 -291q-84 0 -166 41l-121 62q-35 20 -78 20q-78 0 -106 -96 h-133z" />
<glyph unicode="3" d="M586 737q16 -4 65 -20q219 -80 219 -328q0 -244 -198 -356q-109 -59 -234 -60q-127 0 -235 62q-160 88 -160 258q0 63 29 115q49 86 145 86q59 0 100 -42t41 -100q0 -35 -18 -65q-33 -57 -92 -58q-16 0 -64 15q66 -123 195 -123q63 0 108 29q111 68 111 245 q0 164 -84 223q-63 45 -203 54v119q129 0 183 40q88 68 88 211q0 88 -37 158q-49 102 -164 103q-145 0 -184 -125q37 25 71 24q41 0 66 -16q57 -33 57 -99q0 -39 -18 -71q-43 -78 -133 -78q-45 0 -80 20q-84 49 -84 168q0 139 110.5 231.5t272.5 92.5q127 0 229 -59 q166 -98 166 -316q0 -119 -57 -209q-59 -86 -211 -129z" />
<glyph unicode="4" d="M14 489l510 934h228v-944h131v-137h-131v-129q0 -66 65 -66h66v-147h-561v147h100q63 0 63 66v129h-471v147zM485 479v608l-319 -608h319z" />
<glyph unicode="5" d="M78 623l35 813q299 -41 473 -41q121 0 248 41q-23 -117 -66 -160q-86 -86 -291 -86q-135 0 -237 4l-23 -371q78 121 240 121q113 0 207 -51q193 -104 192 -404q0 -223 -102 -360q-113 -156 -340 -156q-236 0 -328 162q-39 66 -39 150q0 74 33 127q45 82 145 82 q43 0 74 -19q76 -39 76 -125q0 -37 -19 -67q-37 -61 -100 -62q-33 0 -78 35q51 -135 199 -135q207 0 207 362q0 313 -185 314q-160 0 -198 -174h-123z" />
<glyph unicode="6" d="M324 772q78 80 206 80q96 0 170 -43q164 -96 164 -358q0 -139 -45 -254q-86 -223 -340 -224q-145 0 -233 52q-109 68 -154 211q-49 162 -49 370q0 381 82 586q109 258 373 258q231 0 325 -162q35 -63 35 -131q0 -76 -41 -129t-108 -53q-39 0 -72 20q-68 41 -68 119 q0 37 19 66q31 49 80 49q16 0 51 -10q-51 100 -160 100q-141 0 -188 -148q-47 -153 -47 -399zM313 414q0 -293 146 -293q109 0 123 149q10 88 10 170q0 203 -72 248q-23 16 -57 17q-150 0 -150 -291z" />
<glyph unicode="7" d="M31 1423h131v-96q109 96 217 96q70 0 129 -20l94 -33q33 -12 72 -12q61 0 96 65h123q-23 -113 -195 -438q-131 -252 -168 -418q-47 -211 -47 -393v-174h-319l10 74q39 262 150 538q88 213 223 416l139 201q-109 -45 -182 -45q-14 0 -113 12q-96 10 -98 10q-49 0 -92 -43 q-39 -39 -39 -125v-61h-131v446z" />
<glyph unicode="8" d="M281 731l-33 27q-182 147 -182 323q0 98 49 183q53 88 139 135q92 51 199 51q113 0 211 -57q174 -100 174 -278.5t-189 -307.5l-31 -21l103 -81q170 -141 170 -334q0 -109 -51 -193q-57 -98 -150 -145q-115 -59 -244 -60q-266 0 -378 187q-51 84 -52 188q0 211 232 363z M426 641l-41 -39q-123 -117 -123 -258q0 -139 96 -199q39 -25 91 -24q117 0 167 94q29 49 29 119q0 121 -117 223q-67 57 -102 84zM492 872q147 123 147 246q0 115 -86 164q-35 20 -80 21q-96 0 -139 -78q-23 -41 -23 -90q0 -102 117 -207z" />
<glyph unicode="9" d="M584 649q-76 -80 -205 -80q-100 0 -170 43q-166 98 -166 361q0 129 45 252q86 225 340 225q227 0 326 -137q111 -150 110 -555q0 -215 -20 -359q-25 -170 -121 -297q-100 -129 -307 -129q-84 0 -158 25q-197 68 -197 272q0 47 17 90q39 88 133 89q35 0 72 -21 q68 -39 67 -117q0 -41 -18 -69q-31 -47 -80 -47q-25 0 -55 10q63 -100 165 -101q127 0 175 121q47 131 47 424zM594 1008q0 295 -145 295q-100 0 -123 -152q-10 -86 -11 -170q0 -199 72 -248q25 -16 57 -16q72 0 109 63q41 70 41 228z" />
<glyph unicode=":" horiz-adv-x="454" d="M223 -12q-59 0 -104 41q-49 45 -49 112q0 63 45 108.5t108 45.5q57 0 99 -35q55 -45 55 -119q0 -57 -35 -98q-45 -55 -119 -55zM223 774q-59 0 -104 41q-49 45 -49 113q0 63 45 108t108 45q57 0 99 -34q55 -45 55 -119q0 -57 -35 -99q-45 -55 -119 -55z" />
<glyph unicode=";" horiz-adv-x="454" d="M131 -283l-70 103q121 84 154 180q-66 0 -105.5 34t-39.5 93q0 74 43 116t104 42q74 0 117 -51.5t43 -129.5q0 -92 -55 -190q-64 -111 -191 -197zM106 1028q47 53 117 53q63 0 108.5 -45t45.5 -108.5t-45 -108.5t-108.5 -45t-108.5 45t-45 109q-1 57 36 100z" />
<glyph unicode="&#x3c;" horiz-adv-x="2048" d="M1636 0l-1224 549v149l1224 551v-196l-972 -432l972 -424v-197z" />
<glyph unicode="=" horiz-adv-x="1366" d="M111 631h1144v-164h-1144v164zM111 975h1144v-164h-1144v164z" />
<glyph unicode="&#x3e;" horiz-adv-x="2048" d="M412 1249l1224 -549v-147l-1224 -553v197l974 432l-974 424v196z" />
<glyph unicode="?" d="M492 362h-138v87q0 115 8 190q2 23 7.5 44.5t15.5 45.5l17 41q7 16 23 44l22 40l26 42l23 38q59 90 59 156q0 76 -54.5 123t-133.5 47q-121 0 -162 -109q41 37 71 37q51 0 84 -37t33 -88q0 -61 -46 -101t-107 -40q-39 0 -74 18q-92 51 -92 176q0 100 78 182 q119 125 311 125q117 0 215 -55q170 -96 170 -281q0 -166 -148 -272l-90 -65q-72 -51 -95 -115t-23 -182v-91zM417.5 -12q-65.5 0 -109.5 45t-44 108q0 66 44 110t109.5 44t109.5 -45t44 -108.5t-44 -108.5t-109.5 -45z" />
<glyph unicode="@" horiz-adv-x="2048" d="M1104 84q-156 -102 -266 -102q-61 0 -119 22q-172 70 -172 281q0 117 53 254q53 143 148 262q160 203 362 203q127 0 221 -144l39 88h207l-244 -620q-49 -127 -49 -148q0 -43 51 -43q39 0 78 21q117 59 184 172q96 164 97 352q0 182 -111 301q-162 178 -442 178 q-156 0 -295 -57q-199 -78 -336 -264q-150 -199 -150 -430q0 -334 287 -486q168 -88 361 -88q115 0 243 31q182 45 391 164l93 -66q-137 -111 -262 -168q-256 -119 -498 -119q-84 0 -168 15q-258 47 -438 203q-109 92 -170 229q-59 137 -60 291q0 260 160 493 q106 152 260 250q256 160 551 160q158 0 307 -51q141 -51 234 -135q207 -182 207 -465q0 -268 -195 -492q-188 -215 -393 -215q-119 0 -166 123zM772 279q-8 -31 -8 -70q0 -82 67 -107q23 -8 39 -8q104 0 203 168q129 219 168 408q12 51 12 98q0 84 -67 113q-25 10 -43 10 q-100 0 -197 -168q-121 -208 -174 -444z" />
<glyph unicode="A" horiz-adv-x="1062" d="M397 0h-385v164h37q39 0 51.5 11t22.5 58l280 1190h285l258 -1200q6 -33 18.5 -46t41.5 -13h43v-164h-502v164h43q57 0 57 43q0 8 -4 37l-33 172h-272l-39 -174q-4 -20 -4 -35q0 -43 59 -43h43v-164zM373 580h207l-93 518z" />
<glyph unicode="B" horiz-adv-x="1073" d="M451 1260v-451h61q106 0 148 53t42 172q0 76 -16 125t-47 68.5t-57.5 26t-65.5 6.5h-65zM721 727q156 -33 224.5 -120t68.5 -251q0 -131 -39 -200q-53 -96 -149.5 -126t-303.5 -30h-461v164h41q35 0 48.5 12t13.5 57v957q0 45 -13.5 57.5t-48.5 12.5h-41v163h449 q86 0 140.5 -5t123 -23.5t115.5 -62.5t76 -113q31 -74 30 -160q0 -135 -64.5 -213t-209.5 -119zM451 645v-481h59q133 0 172 59.5t39 188.5q0 78 -16.5 127t-48 71.5t-62.5 28.5t-78 6h-65z" />
<glyph unicode="C" horiz-adv-x="946" d="M709 1315l41 108h114v-544h-139v14q0 209 -51 309q-43 84 -129 84q-119 0 -146 -156q-27 -141 -26 -462q0 -170 8 -295q14 -236 164 -236q29 0 49 4t47 25.5t43 59.5t28.5 112t12.5 176v84h139v-137q0 -487 -364 -488q-96 0 -183.5 41t-132.5 111q-106 164 -106 551 q0 205 37 379q55 252 211 352q68 43 149 43q142 0 234 -135z" />
<glyph unicode="D" horiz-adv-x="1085" d="M61 1423h457q158 0 246 -34.5t149 -135.5q98 -164 99 -542q0 -152 -21 -287q-33 -244 -153 -346q-90 -78 -320 -78h-457v164h41q35 0 48.5 12t13.5 57v957q0 45 -13.5 57.5t-48.5 12.5h-41v163zM459 1260v-1096h51q135 0 168 112q39 135 39 435q0 317 -39 436 q-33 113 -168 113h-51z" />
<glyph unicode="E" horiz-adv-x="1087" d="M61 1423h936v-481h-139v57q0 88 -16.5 142.5t-55 79t-78.5 32t-110 7.5h-139v-435h61q35 0 53.5 5.5t31.5 29t13 68.5v94h140v-557h-140v94q0 33 -5 52.5t-27.5 35t-65.5 15.5h-61v-498h145q72 0 127 16q127 41 127 264v84h139v-528h-936v164h41q35 0 48.5 12t13.5 57 v957q0 45 -13.5 57.5t-48.5 12.5h-41v163z" />
<glyph unicode="F" horiz-adv-x="1036" d="M61 1423h940v-481h-139v57q0 88 -16.5 142.5t-55 79t-78.5 32t-110 7.5h-143v-445h61q35 0 53.5 5t31.5 28.5t13 69.5v94h140v-557h-140v94q0 33 -5 52.5t-27.5 34.5t-65.5 15h-61v-418q0 -45 13 -57t48 -12h78v-164h-537v164h41q35 0 48.5 12t13.5 57v957 q0 45 -13.5 57.5t-48.5 12.5h-41v163z" />
<glyph unicode="G" horiz-adv-x="1040" d="M748 1317l36 106h121v-538h-139q0 201 -74 313q-55 88 -137 88q-102 0 -139 -117q-43 -137 -43 -467q0 -393 26 -487q20 -78 103 -78q35 0 57 15q72 45 72 258q0 102 -17 129q-14 27 -94 26h-41v164h549v-164h-35q-68 0 -67 -84v-481h-160l-35 111q-76 -137 -237 -138 q-166 0 -269 99q-86 84 -116 215q-31 139 -31 391q0 268 47 438q94 334 379 334q172 0 244 -133z" />
<glyph unicode="H" horiz-adv-x="1200" d="M561 0h-500v164h41q35 0 48.5 12t13.5 57v957q0 45 -13.5 57.5t-48.5 12.5h-41v163h500v-163h-41q-35 0 -48 -12.5t-13 -57.5v-381h282v381q0 45 -13 57.5t-48 12.5h-41v163h500v-163h-41q-35 0 -48.5 -12.5t-13.5 -57.5v-957q0 -45 13.5 -57t48.5 -12h41v-164h-500v164 h41q35 0 48 12t13 57v412h-282v-412q0 -45 13 -57t48 -12h41v-164z" />
<glyph unicode="I" horiz-adv-x="622" d="M561 0h-500v164h41q35 0 48.5 12t13.5 57v957q0 45 -13.5 57.5t-48.5 12.5h-41v163h500v-163h-41q-35 0 -48 -12.5t-13 -57.5v-957q0 -45 13 -57t48 -12h41v-164z" />
<glyph unicode="J" horiz-adv-x="860" d="M272 1423h551v-163h-41q-35 0 -48 -12.5t-13 -57.5v-776q0 -209 -68 -303q-102 -137 -303 -138q-123 0 -209 52q-121 72 -121 206q0 72 41 123.5t105 51.5q61 0 98 -41t37 -105q0 -119 -125 -119q59 -39 115 -39q53 0 98 33t45 107q0 4 -4 63.5t-4 116.5v768 q0 39 -9 54.5t-44 15.5h-101v163z" />
<glyph unicode="K" horiz-adv-x="1165" d="M561 0h-500v164h41q35 0 48.5 12t13.5 57v957q0 45 -13.5 57.5t-48.5 12.5h-41v163h500v-163h-41q-35 0 -48 -12.5t-13 -57.5v-485l293 485q18 27 18 41q0 29 -55 29h-47v163h438v-163h-47q-27 0 -51 -5q-31 -6 -68 -65l-199 -330l322 -637q31 -59 61 -59h29v-164h-485 v164h41q55 0 55 31q0 20 -10 38l-174 365l-121 -225v-140q0 -45 13 -57t48 -12h41v-164z" />
<glyph unicode="L" horiz-adv-x="954" d="M61 1423h537v-163h-82q-33 0 -45 -11.5t-12 -58.5v-1026h102q129 0 174 57q39 55 39 182v119h139v-522h-852v164h41q35 0 48.5 12t13.5 57v957q0 45 -13.5 57.5t-48.5 12.5h-41v163z" />
<glyph unicode="M" horiz-adv-x="1460" d="M434 0h-377v164h41q35 0 48.5 12t13.5 57v957q0 45 -13.5 57.5t-48.5 12.5h-41v163h508l156 -868h6l203 868h469v-163h-41q-35 0 -48.5 -12.5t-13.5 -57.5v-957q0 -45 13.5 -57t48.5 -12h41v-164h-496v164h41q35 0 48.5 12t13.5 57v824h-7l-243 -1057h-176l-242 1167h-6 v-934q0 -45 13 -57t48 -12h41v-164z" />
<glyph unicode="N" horiz-adv-x="1144" d="M991 0h-264l-393 997v-764q0 -45 13 -57t48 -12h41v-164h-377v164h41q35 0 48.5 12t13.5 57v957q0 45 -13.5 57.5t-48.5 12.5h-41v163h400l360 -948v715q0 45 -13 57.5t-48 12.5h-41v163h377v-163h-41q-35 0 -48.5 -12.5t-13.5 -57.5v-1190z" />
<glyph unicode="O" horiz-adv-x="1021" d="M78 711q0 180 12 321q14 182 111 291q117 127 309 127q90 0 176 -35q158 -68 211 -227q47 -137 47 -477q0 -178 -12 -320q-18 -188 -113 -291q-117 -127 -309 -127q-96 0 -176 35q-219 96 -244 383q-12 136 -12 320zM371 434q0 -213 63 -272q29 -25 76 -25q119 0 133 182 q6 74 6 115v555q0 219 -61 271q-27 27 -78 26q-117 0 -133 -182q-6 -72 -6 -115v-555z" />
<glyph unicode="P" horiz-adv-x="1056" d="M600 0h-539v164h41q35 0 48.5 12t13.5 57v957q0 45 -13.5 57.5t-48.5 12.5h-41v163h398h84q246 0 338 -63q139 -98 139 -336q0 -272 -156 -354q-109 -57 -323 -58h-82v-379q0 -35 12 -52t51 -17h78v-164zM459 776h78q137 0 172 109q16 49 16 135q0 164 -68 211 q-41 29 -120 29h-78v-484z" />
<glyph unicode="Q" horiz-adv-x="1077" d="M512 -27q-94 0 -176 35q-219 96 -246 383q-12 135 -12 320q0 180 12 321q16 184 113 291q117 127 309 127q90 0 176 -35q160 -70 211 -227q45 -133 45 -477q0 -178 -12 -320q-23 -219 -141 -317l14 -19q27 -43 65 -43q106 0 107 166v37h96v-45q0 -205 -88 -303 q-61 -66 -158 -66q-139 0 -198 176l-4 13q-50 -17 -113 -17zM584 150l-13 36q-33 94 -104 95q-66 0 -66 -56q0 -43 33 -63q37 -25 84 -25q29 0 51 8zM379 328l6 8q49 55 125 55q74 0 123 -59l10 -13l2 15q4 82 4 100v555q0 219 -61 271q-27 27 -76 26q-117 0 -133 -182 q-6 -74 -6 -115v-555q0 -18 4 -92z" />
<glyph unicode="R" horiz-adv-x="1189" d="M561 0h-500v164h41q35 0 48.5 12t13.5 57v957q0 45 -13.5 57.5t-48.5 12.5h-41v163h426q213 0 326 -34q205 -66 205 -347q0 -98 -29 -180q-39 -119 -196 -160l-76 -18q98 -35 141 -70q82 -66 94 -239l6 -94q2 -37 5.5 -57.5t8.5 -43t15 -33t25 -10.5q57 0 57 139v33h113 v-49q0 -92 -41 -170q-59 -117 -215 -117q-152 0 -215 99q-53 82 -54 264q0 203 -39 250q-27 33 -104 32h-55v-385q0 -45 13 -57t48 -12h41v-164zM459 782h82q137 0 168 107q14 55 14 131q0 164 -68 213q-39 27 -118 27h-78v-478z" />
<glyph unicode="S" horiz-adv-x="974" d="M86 0v575h139q18 -205 94 -317q82 -121 205 -121q47 0 86 21q78 43 78 127q0 61 -29 108q-63 104 -251 223q-117 78 -125 84q-193 137 -193 377q0 233 178 328q84 45 178 45q145 0 252 -107l25 80h129v-530h-141q0 135 -39 225q-70 168 -215 168q-33 0 -66 -16 q-72 -41 -72 -125q0 -53 39 -101q61 -72 205 -167q147 -100 213 -168q141 -143 142 -338q0 -248 -183 -348q-86 -49 -184 -50q-68 0 -123 21q-76 29 -172 119l-31 -113h-139z" />
<glyph unicode="T" horiz-adv-x="1064" d="M49 1423h967v-565h-139v86q0 129 -27 207q-35 109 -170 109v-1027q0 -43 13.5 -56t49.5 -13h88v-164h-598v164h91q39 0 50 12t11 57v1027q-135 0 -170 -109q-27 -78 -27 -207v-86h-139v565z" />
<glyph unicode="U" horiz-adv-x="1079" d="M49 1423h500v-163h-41q-35 0 -48.5 -12.5t-13.5 -57.5v-856q0 -43 3.5 -69.5t16.5 -60.5t45 -50.5t83 -16.5q59 0 98 27q68 43 68 205v821q0 45 -13.5 57.5t-48.5 12.5h-41v163h377v-163h-41q-35 0 -48 -12.5t-13 -57.5v-764q0 -227 -66 -317q-96 -135 -325 -136 q-193 0 -289 90q-74 68 -88 150q-12 80 -12 221v756q0 45 -13.5 57.5t-48.5 12.5h-41v163z" />
<glyph unicode="V" horiz-adv-x="1046" d="M20 1423h502v-163h-43q-59 0 -59 -46q0 -8 4 -25.5t4 -23.5l147 -798l179 809q6 20 6 43q0 41 -47 41h-45v163h366v-163h-41q-47 0 -63 -66l-281 -1194h-280l-240 1192q-4 25 -9 37t-19.5 21.5t-37.5 9.5h-43v163z" />
<glyph unicode="W" horiz-adv-x="1517" d="M25 1260v163h473v-163h-41q-63 0 -64 -46q0 -23 4 -34l138 -834l131 844q4 16 4 24q0 45 -64 46h-43v163h502v-163h-43q-61 0 -61 -46q0 -18 4 -34l139 -811l137 821q4 20 4 24q0 45 -63 46h-43v163h362v-163h-39q-39 0 -45 -31l-8 -39l-225 -1190h-266l-138 879 l-147 -879h-266l-238 1190q-2 6 -5 19.5t-5 19.5q-12 31 -49 31h-45z" />
<glyph unicode="X" horiz-adv-x="1067" d="M25 1423h491v-163h-35q-49 0 -49 -19l12 -31l113 -249l127 251q12 20 12 31q0 16 -47 17h-41v163h410v-163h-39q-47 0 -66.5 -10.5t-33.5 -39.5l-226 -436l283 -557q27 -53 76 -53h30v-164h-505v164h45q49 0 49 20q0 10 -13 35l-122 273l-150 -285q-10 -25 -10 -29 q0 -14 45 -14h37v-164h-385v164h35q49 0 67 37l264 483l-252 526q-20 49 -71 50h-51v163z" />
<glyph unicode="Y" horiz-adv-x="1017" d="M608 1423h389v-163h-30q-57 0 -84 -70l-213 -600v-357q0 -41 13 -55t50 -14h76v-164h-573v164h77q39 0 50.5 12t11.5 57v349l-250 624q-23 53 -57 54h-43v163h501v-163h-43q-55 0 -55 -35q0 -12 6 -35l133 -379l125 379q8 29 8 35q0 35 -45 35h-47v163z" />
<glyph unicode="Z" horiz-adv-x="1028" d="M70 0v166l573 1094h-168q-78 0 -119 -11q-117 -33 -116 -243v-138h-140v555h854v-149l-575 -1110h196q53 0 109 16q121 37 121 256v150h139v-586h-874z" />
<glyph unicode="[" horiz-adv-x="454" d="M35 1423h379v-147h-133v-1524h133v-147h-379v1818z" />
<glyph unicode="\" horiz-adv-x="454" d="M440 -27h-155l-250 1477h149z" />
<glyph unicode="]" horiz-adv-x="454" d="M37 -248h131v1524h-131v147h377v-1818h-377v147z" />
<glyph unicode="^" horiz-adv-x="1024" d="M461 1536h102l12 -33q31 -80 112 -188.5t159 -167.5l78 -60v-96l-68 29q-59 27 -157.5 88t-135.5 100l-51 54l-53 -54q-45 -45 -130 -101t-161 -87l-68 -29v96l76 60q172 137 268 354z" />
<glyph unicode="_" horiz-adv-x="1024" d="M0 -410h1024v-102h-1024v102z" />
<glyph unicode="`" d="M618 1194l-223 92q-98 43 -98 107q0 43 31 73q31 35 78 35q39 0 100 -61l168 -168z" />
<glyph unicode="a" horiz-adv-x="1044" d="M266 922q78 -6 107 -35q41 -37 41 -92q0 -37 -19 -70q-43 -78 -137 -78q-45 0 -88 25q-84 53 -84 153q0 115 94 191q117 92 305 92q109 0 205 -43q133 -59 152 -174q6 -39 6 -121v-551q0 -86 31 -86q39 0 39 86v88h110v-90q0 -94 -37 -151q-61 -92 -180 -93 q-156 0 -205 156q-104 -156 -268 -156q-82 0 -158 41q-127 74 -127 228q0 193 203 286l43 19l117 51q172 78 172 195q0 41 -19 71q-47 84 -159 84q-55 0 -101 -14zM582 555q-201 -150 -244 -236q-12 -29 -12 -67q0 -72 51 -105q27 -14 53 -14q96 0 133 131q18 68 19 133v158 z" />
<glyph unicode="b" horiz-adv-x="964" d="M385 975q86 133 215 133q100 0 162 -64q76 -78 102 -186q39 -141 39 -303q0 -106 -22 -229q-39 -213 -156 -297q-80 -55 -174 -56q-66 0 -119 27q-72 37 -121 156l-82 -156h-129q18 102 19 205v1001q0 41 -11.5 55.5t-46.5 14.5h-36v147h360v-448zM375 508 q0 -236 47 -305q33 -47 92 -47q88 0 107 163q10 113 10 228q0 289 -60 352q-25 27 -67 27q-102 0 -117 -166q-12 -121 -12 -252z" />
<glyph unicode="c" horiz-adv-x="870" d="M637 430h156v-53q0 -172 -62 -268q-86 -135 -280 -136q-186 0 -287 138q-102 143 -103 401q0 307 105 446q113 150 309 150q111 0 195 -51q131 -76 131 -248q0 -68 -29 -121q-41 -78 -145 -78q-39 0 -68 15q-70 41 -70 123q0 41 19 71q39 57 100 58q18 0 54 -11 q-43 82 -146 82q-106 0 -145 -88q-37 -86 -37 -299q0 -135 8 -231q18 -197 141 -197q154 0 154 238v59z" />
<glyph unicode="d" horiz-adv-x="983" d="M578 98q-33 -43 -62 -67q-68 -57 -162 -58q-68 0 -114 27q-178 102 -179 489q0 143 21 275q53 344 289 344q121 0 207 -104v202q0 41 -11.5 55.5t-46.5 14.5h-37v147h361l-2 -1204q0 -41 12 -56.5t47 -15.5h37v-147h-360v98zM334 535q0 -215 20 -291q25 -88 99 -88 q96 0 114 170q10 117 11 231q0 281 -62 342q-25 27 -63 27q-92 0 -111 -172q-8 -88 -8 -219z" />
<glyph unicode="e" horiz-adv-x="884" d="M334 506q0 -190 18 -260q33 -113 135 -113q37 0 66 17q86 55 86 215v51h176v-37q0 -274 -176 -365q-82 -41 -176 -41q-117 0 -207 58q-195 127 -195 463q0 117 23 245q43 229 188 320q84 49 183 49q190 0 290 -162q70 -109 70 -354v-86h-481zM334 653h209q0 172 -15 219 q-23 76 -88 76q-70 0 -94 -84q-12 -45 -12 -211z" />
<glyph unicode="f" horiz-adv-x="638" d="M49 934v147h103q0 180 45 250q74 119 237 119q84 0 163 -48t79 -136q0 -51 -33 -89t-84 -38q-45 0 -74.5 29.5t-29.5 70.5q0 37 22.5 62.5t54.5 25.5q12 0 33 -4q-41 27 -76 27q-33 0 -57 -15q-59 -29 -59 -121q0 -47 30 -133h201v-147h-186v-717q0 -39 10 -54.5 t47 -15.5h62v-147h-480v147h37q35 0 46.5 14.5t11.5 55.5v717h-103z" />
<glyph unicode="g" horiz-adv-x="1040" d="M342 692q0 -231 113 -231q82 0 94 131q6 63 6 127q0 207 -61 246q-14 12 -39 12q-96 0 -109 -152q-4 -86 -4 -133zM307 354q-63 -29 -63 -69q0 -74 114 -74h177q143 0 202.5 -7t110.5 -36q125 -72 125 -227q0 -154 -144 -232q-125 -68 -337 -67q-100 0 -189 14 q-258 37 -258 186q0 123 164 158q-57 25 -94 63q-49 53 -49 134q0 139 141 217q-119 88 -119 286q0 109 41 213q76 195 322 195q113 0 235 -68q18 66 76 105q53 35 112 35q51 0 95 -25q84 -47 84 -164q0 -152 -119 -151q-100 0 -100 112q0 31 12 56q18 43 61 43q14 0 31 -9 q-20 31 -59 31q-20 0 -37 -8q-68 -31 -68 -102q0 -8 4 -33l23 -99q8 -31 8 -104q0 -399 -358 -399q-64 -1 -144 26zM309 -37q-86 -16 -86 -80q0 -109 266 -108q199 0 277 61q29 25 29 58q0 66 -125 65h-115q-78 0 -246 4z" />
<glyph unicode="h" horiz-adv-x="1038" d="M494 0h-445v147h37q35 0 46 14.5t11 55.5v989q0 41 -11 55.5t-46 14.5h-37v147h361v-462q76 76 135 111.5t133 35.5q119 0 178 -78q51 -70 51 -254l-2 -557q0 -41 12.5 -56.5t47.5 -15.5h36v-147h-444v147h27q35 0 46 14.5t11 55.5v586q0 98 -86 98q-145 0 -145 -266 v-418q0 -41 11 -55.5t46 -14.5h27v-147z" />
<glyph unicode="i" horiz-adv-x="548" d="M49 1081h361l-2 -862q0 -41 12 -56.5t47 -15.5h37v-147h-455v147h37q35 0 46 14.5t11 55.5v647q0 41 -11 55.5t-46 14.5h-37v147zM104 1296q0 43 21 78q43 80 137 80q45 0 78 -20q80 -45 80 -138q0 -45 -21 -79q-47 -78 -137 -78q-41 0 -80 20q-78 45 -78 137z" />
<glyph unicode="j" horiz-adv-x="612" d="M74 1081h405v-1077q0 -164 -37 -231q-74 -131 -252 -131q-90 0 -159 39q-102 55 -103 172q0 49 21 84q37 63 108 63q27 0 52 -12q66 -37 65 -117q0 -33 -14 -59q-25 -45 -66 -45q-6 0 -35 4q41 -29 76 -29q104 0 105 117q0 39 -7 94q-20 156 -20 237v682q0 33 -9 47.5 t-46 14.5h-84v147zM172 1296q0 39 23 78q43 80 135 80q45 0 80 -20q80 -45 79 -138q0 -41 -22 -79q-47 -78 -137 -78q-43 0 -78 20q-80 45 -80 137z" />
<glyph unicode="k" horiz-adv-x="1021" d="M45 1423h361v-882l215 313q25 37 24 55q0 25 -57 25h-43v147h430v-147h-55q-66 0 -109 -55l-143 -191l262 -489q27 -51 59 -52h23v-147h-426v147h26q39 0 39 21q0 16 -16 45l-129 252l-100 -133v-115q0 -37 11 -53.5t46 -16.5h39v-147h-457v147h37q35 0 46 14.5t11 55.5 v989q0 41 -11 55.5t-46 14.5h-37v147z" />
<glyph unicode="l" horiz-adv-x="548" d="M504 0h-455v147h37q35 0 46 14.5t11 55.5v989q0 41 -11 55.5t-46 14.5h-37v147h361l-2 -1204q0 -41 12 -56.5t47 -15.5h37v-147z" />
<glyph unicode="m" horiz-adv-x="1540" d="M494 0h-445v147h37q35 0 46 14.5t11 55.5v647q0 41 -11 55.5t-46 14.5h-37v147h361v-145q20 31 41 53q98 119 225 119q78 0 129 -31q63 -39 94 -141q133 172 285 172q133 0 192 -109q33 -63 33 -229l-2 -551q0 -41 12.5 -56.5t46.5 -15.5h37v-147h-444v147h33q27 0 34 7 q16 12 17 63v526q0 88 -14.5 123t-71.5 35q-147 0 -148 -274v-410q0 -39 10.5 -54.5t47.5 -15.5h26v-147h-434v147h33q51 0 51 70v526q0 94 -15.5 126t-70.5 32q-147 0 -147 -274v-410q0 -16 4 -37q6 -33 53 -33h27v-147z" />
<glyph unicode="n" horiz-adv-x="1040" d="M494 0h-445v147h37q35 0 46 14.5t11 55.5v647q0 41 -11 55.5t-46 14.5h-37v147h361v-135l49 60q92 102 221 102q59 0 102 -21q102 -45 121 -159q6 -51 6 -152l-2 -557q0 -41 12.5 -56.5t47.5 -15.5h37v-147h-445v147h27q35 0 46 14.5t11 55.5v533q0 53 -4 80.5t-24.5 49 t-59.5 21.5q-145 0 -145 -266v-418q0 -41 11 -55.5t46 -14.5h27v-147z" />
<glyph unicode="o" horiz-adv-x="911" d="M61 541q0 147 33 280q68 287 357 287q125 0 217 -55q182 -104 182 -512q0 -274 -84 -414q-92 -154 -305 -154q-227 0 -316 154q-84 150 -84 414zM334 541q0 -219 18 -305q20 -102 105 -103q100 0 114 186q6 102 7 222q0 219 -19 305q-20 102 -104 102q-100 0 -115 -186 q-6 -102 -6 -221z" />
<glyph unicode="p" horiz-adv-x="985" d="M406 977q123 131 215 131q66 0 124 -35q178 -111 179 -500q0 -154 -29 -303q-55 -297 -279 -297q-104 0 -210 101l-3 -189q0 -41 12.5 -56t47.5 -15h37v-148h-455v148h37q35 0 46 14t11 55v981q0 41 -11 55.5t-46 14.5h-37v147h361v-104zM406 516q0 -266 63 -336 q25 -25 63 -24q96 0 111 161q8 90 8 230q0 289 -53 352q-20 27 -61 27q-94 0 -117 -172q-14 -134 -14 -238z" />
<glyph unicode="q" horiz-adv-x="964" d="M578 106q-74 -133 -207 -133q-61 0 -125 35q-53 29 -90 82q-94 139 -95 440q0 289 97 441q88 137 256 137q72 0 125 -27q74 -35 127 -145l69 145h127q-18 -115 -18 -200l-2 -996q0 -41 12 -56t47 -15h37v-148h-455v148h37q35 0 46.5 14t11.5 55v223zM334 545 q0 -256 20 -320q23 -70 92.5 -69.5t108.5 75.5q18 35 25 93q8 143 8 278q0 193 -35 264q-29 59 -100 60q-90 0 -109 -148q-10 -83 -10 -233z" />
<glyph unicode="r" horiz-adv-x="763" d="M551 0h-500v147h37q35 0 46 14.5t11 55.5v647q0 41 -11 55.5t-46 14.5h-37v147h322v-100q59 127 192 127q57 0 105 -29q102 -59 102 -194q0 -47 -16 -86q-35 -92 -135 -92q-125 0 -125 129q0 29 10 59q25 66 92 66q18 0 47 -5q-25 39 -72 39q-74 0 -114 -59 q-47 -72 -47 -268v-451q0 -41 13 -55.5t48 -14.5h78v-147z" />
<glyph unicode="s" horiz-adv-x="874" d="M74 432h131q2 -12 6 -23.5t8 -24.5t6 -19q78 -233 264 -234q33 0 62 14q51 27 51 84q0 84 -127 150l-201 102q-199 100 -198 320q0 90 41 162q80 145 258 145q119 0 225 -100l43 73h107v-393h-132l-10 37q-25 90 -84 160q-59 66 -129 65q-33 0 -61 -16q-55 -29 -55 -84 q0 -31 18 -55q33 -47 192 -117q92 -39 166 -92q150 -100 150 -283q0 -100 -45 -176q-88 -154 -275 -154q-47 0 -100 17q-68 20 -164 106l-39 -96h-108v432z" />
<glyph unicode="t" horiz-adv-x="663" d="M33 1081q109 6 151 54q66 78 66 206h151v-260h187v-147h-187v-674q0 -129 50 -129q63 0 63 121v80h125v-88q0 -74 -16 -133q-41 -137 -224 -138q-92 0 -161 35q-102 55 -103 236v690h-102v147z" />
<glyph unicode="u" horiz-adv-x="1028" d="M29 1081h362v-745q0 -156 92 -156q139 0 140 260v424q0 37 -11.5 53.5t-46.5 16.5h-37v147h361l-2 -862q0 -41 12 -56.5t47 -15.5h37v-147h-360v145q-51 -102 -134 -143q-55 -29 -122 -29q-106 0 -174 82q-68 86 -68 273v536q0 37 -11.5 53.5t-45.5 16.5h-39v147z" />
<glyph unicode="v" horiz-adv-x="890" d="M16 1081h455v-147h-29q-59 0 -59 -31q0 -6 4 -21.5t4 -21.5l12 -61l93 -488l75 312l58 235q10 41 10 43q0 33 -59 33h-33v147h332v-147h-25q-35 0 -53 -70l-72 -270l-90 -338l-68 -256h-252l-61 244l-127 506l-29 114q-10 41 -21 55.5t-42 14.5h-23v147z" />
<glyph unicode="w" horiz-adv-x="1378" d="M16 1081h426v-147h-34q-51 0 -52 -31q0 -10 6 -39l119 -563l109 553q6 31 6 45q0 35 -45 35h-37v147h447v-147h-33q-45 0 -45 -25q0 -14 6 -45l98 -571l123 571q6 20 6 43q0 27 -51 27h-35v147h336v-147h-31q-47 0 -63 -70l-201 -864h-260l-111 610l-131 -610h-260 l-198 864q-14 70 -72 70h-23v147z" />
<glyph unicode="x" horiz-adv-x="954" d="M20 0v147h56q63 0 92 48l184 301l-229 385q-31 53 -76 53h-27v147h451v-147h-29q-33 0 -32 -25q0 -12 12 -35l78 -145l86 145q14 20 14 37q0 23 -35 23h-20v147h352v-147h-45q-66 0 -96 -49l-176 -287l239 -395q33 -55 99 -56h20v-147h-467v147h29q45 0 45 23 q0 12 -13 31l-98 166l-98 -170q-8 -14 -8 -25q0 -25 43 -25h28v-147h-379z" />
<glyph unicode="y" horiz-adv-x="933" d="M14 1081h478v-147h-29q-59 0 -60 -27v-8l9 -37l120 -481l130 477q10 35 10 51q0 25 -62 25h-43v147h357v-147h-37q-14 0 -23 -6q-12 -6 -30 -64l-291 -923q-29 -96 -64 -160q-74 -139 -227 -139q-68 0 -121 30q-100 61 -100 172q0 49 22 86q43 70 115 70q41 0 70 -20 q55 -33 55 -105q0 -35 -14 -57q-20 -43 -66 -43q-16 0 -37 4q23 -29 60 -29q98 0 135 135l32 115l-280 864q-14 45 -23.5 57.5t-38.5 12.5h-47v147z" />
<glyph unicode="z" horiz-adv-x="839" d="M49 0v147l449 787h-101q-135 0 -174 -80q-20 -49 -26 -149h-131v376h712v-118l-440 -816h88q137 0 180 78q29 51 41 185h131v-410h-729z" />
<glyph unicode="{" horiz-adv-x="454" d="M145 575q279 100 279 267q0 61 -27 149q-37 119 -37 199q0 133 127 225q137 104 416 135v-84q-272 -98 -272 -268q0 -66 20 -160q18 -96 19 -166q0 -94 -51.5 -161.5t-186.5 -128.5q-53 -23 -119 -47q94 -35 119 -46q238 -96 238 -292q0 -74 -19 -168q-20 -90 -20 -160 q0 -61 28 -107q61 -92 244 -161v-84q-178 20 -268 55q-274 104 -275 307q0 80 37 199q27 86 27 147q0 168 -279 267v83z" />
<glyph unicode="|" horiz-adv-x="1024" d="M459 1550h106v-2048h-106v2048z" />
<glyph unicode="}" horiz-adv-x="454" d="M879 575v-83q-279 -98 -279 -265q0 -53 29 -149q35 -121 35 -199q0 -68 -33 -125q-72 -119 -242 -182q-88 -33 -266 -55v84l29 11l30 12l23 9q188 80 188 236q0 66 -18 160q-20 96 -21 168q0 141 131 233q74 51 226 105q-43 14 -117 43q-240 102 -240 294q0 72 21 166 q18 96 18 160q0 174 -270 268v84q276 -31 414 -135q127 -92 127 -227q0 -76 -35 -197q-29 -96 -29 -149q0 -51 33 -105q62 -94 246 -162z" />
<glyph unicode="~" horiz-adv-x="2048" d="M416 487q55 100 145 164q111 80 201 80q98 0 190 -29l176 -55q53 -16 145.5 -33.5t133.5 -17.5q96 0 186 76l56 49l37 -55q-125 -256 -324 -256q-88 0 -258 49l-174 49q-131 37 -219 37q-111 0 -213 -80l-52 -41z" />
<glyph unicode="&#xa4;" horiz-adv-x="1366" d="M279 166l-132 131l136 135q-84 119 -84 270.5t84 270.5l-136 135l132 131l135 -135q121 84 270 84q147 0 270 -84l136 135l131 -131l-136 -135q84 -119 84 -270.5t-84 -270.5l136 -135l-131 -131l-136 135q-125 -84 -270 -84q-154 0 -270 84zM965 702.5 q0 116.5 -82 198.5t-199 82t-199 -82t-82 -199q0 -164 142 -243q66 -37 139 -37q117 0 199 82t82 198.5z" />
<glyph unicode="&#xa6;" horiz-adv-x="1024" d="M565 1423v-741h-106v741h106zM565 408v-742h-106v742h106z" />
<glyph unicode="&#xa7;" d="M643 1417l23 76h133v-475h-142l-8 63q-14 106 -67 179q-74 100 -176 100q-66 0 -103 -42t-37 -108q0 -102 152 -211l160 -112q90 -63 145 -109q141 -115 141 -254q0 -135 -92 -260l-24 -33q145 -158 145 -325q0 -113 -62 -221q-106 -184 -325 -185q-162 0 -301 121 l-27 -74h-127v557h139q12 -242 62 -323q29 -49 90 -83t129 -34q78 0 132 44t54 120q0 125 -180 242l-141 90q-68 41 -137 96q-158 125 -158 299q0 125 104 293q-115 131 -114 285q0 236 182 342q82 49 186 49q138 -1 244 -107zM373 684l-105 68q-25 -39 -24 -74 q0 -98 114 -170l129 -84l138 -98q35 49 34 100q0 84 -112 152l-146 88z" />
<glyph unicode="&#xa8;" d="M266 1458q39 0 72 -20q61 -41 61 -113q0 -35 -18 -65q-37 -66 -115 -66q-35 0 -65 18q-63 37 -66 113q0 37 19 68q40 65 112 65zM682 1458q39 0 72 -20q61 -41 61 -113q0 -35 -18 -65q-37 -66 -115 -66q-35 0 -66 18q-63 37 -65 113q0 37 18 68q41 65 113 65z" />
<glyph unicode="&#xa9;" horiz-adv-x="1167" d="M1065 1052.5q0 -198.5 -141.5 -340t-341.5 -141.5q-199 0 -339.5 141.5t-140.5 340t140.5 340t339.5 141.5q201 0 342 -141.5t141 -340zM991 1053q0 168 -118.5 287.5t-288.5 119.5t-289 -119.5t-119 -287.5t119 -288t289 -120t288.5 120t118.5 288zM764 971h41l-4 -37 q-25 -170 -201 -170q-109 0 -182 74q-80 86 -80 219q0 127 74 213q80 94 178 94q29 0 63 -10q14 -4 31 -11l27 -10q10 -4 12 -4q16 0 33 35h39v-219l-39 -8q-55 180 -152 180q-137 0 -137 -262q0 -61 12 -117q29 -127 139.5 -127t139.5 127z" />
<glyph unicode="&#xaa;" horiz-adv-x="1044" d="M266 922q78 -6 107 -35q41 -37 41 -92q0 -37 -19 -70q-43 -78 -137 -78q-45 0 -88 25q-84 53 -84 153q0 115 94 191q117 92 305 92q109 0 205 -43q133 -59 152 -174q6 -39 6 -121v-551q0 -86 31 -86q39 0 39 86v88h110v-90q0 -94 -37 -151q-61 -92 -180 -93 q-156 0 -205 156q-104 -156 -268 -156q-82 0 -158 41q-127 74 -127 228q0 193 203 286l43 19l117 51q172 78 172 195q0 41 -19 71q-47 84 -159 84q-55 0 -101 -14zM582 555q-201 -150 -244 -236q-12 -29 -12 -67q0 -72 51 -105q27 -14 53 -14q96 0 133 131q18 68 19 133v158 z" />
<glyph unicode="&#xab;" horiz-adv-x="948" d="M133 592l248 356h141l-188 -356l188 -356h-143zM438 592l248 356h141l-186 -356l186 -356h-143z" />
<glyph unicode="&#xac;" horiz-adv-x="1366" d="M57 1059h1243v-703h-163v539h-1080v164z" />
<glyph unicode="&#xad;" horiz-adv-x="454" d="M68 645h319v-178h-319v178z" />
<glyph unicode="&#xae;" horiz-adv-x="1167" d="M1065 1052.5q0 -198.5 -141.5 -340t-341.5 -141.5q-199 0 -339.5 141.5t-140.5 340t140.5 340t339.5 141.5q201 0 342 -141.5t141 -340zM991 1053q0 168 -118.5 287.5t-288.5 119.5t-289 -119.5t-119 -287.5t119 -288t289 -120t288.5 120t118.5 288zM621 786h-283v41 l33 2q53 4 53 74v322q0 41 -9 54t-44 17l-33 4v41h254q113 0 169 -27.5t56 -113.5q0 -104 -141 -135l14 -10q49 -33 76 -119q2 -4 5 -16l5 -21q2 -8 6 -17.5t11.5 -13.5t15.5 -4q33 0 33 60v12h39v-21q0 -27 -15 -63q-29 -66 -94 -66q-35 0 -59 19q-39 31 -60 123 q-16 80 -32.5 103.5t-65.5 23.5h-23v-152q0 -37 10.5 -52t43.5 -20l35 -4v-41zM532 1096h46q117 0 116 104q0 100 -88 100q-45 0 -59.5 -16t-14.5 -63v-125z" />
<glyph unicode="&#xaf;" d="M219 1194v121h463v-121h-463z" />
<glyph unicode="&#x2c9;" d="M219 1194v121h463v-121h-463z" />
<glyph unicode="&#xb0;" d="M762 1143q0 -127 -90 -217t-217 -90t-217.5 90t-90.5 217t90.5 217t217.5 90t217 -90t90 -217zM631 1143q0 76 -51.5 128t-125 52t-124.5 -52t-51 -128t51 -128t124.5 -52t125 52t51.5 128z" />
<glyph unicode="&#xb1;" horiz-adv-x="1366" d="M111 6v164h1144v-164h-1144zM111 676v164h489v442h164v-442h491v-164h-491v-443h-164v443h-489z" />
<glyph unicode="&#xb2;" d="M27 0q0 41 8 106q23 213 106 353q45 80 138 168l167 168q145 145 146 290q0 66 -31 119q-53 98 -166 99q-145 0 -190 -136q25 27 57 27q35 0 64 -16q63 -39 63 -111q0 -39 -20 -72q-43 -76 -133 -75q-45 0 -84 20q-88 55 -89 180q0 170 166 269q102 61 222 61 q123 0 229 -64q184 -109 184 -311q0 -215 -231 -383l-184 -133q-170 -123 -230 -244q-16 -35 -35 -116q74 72 142 71q23 0 128 -15t140 -15q39 0 70 18q82 49 81 166v47h132v-51q0 -68 -11 -156q-37 -291 -235 -291q-84 0 -166 41l-121 62q-35 20 -78 20q-78 0 -106 -96 h-133z" />
<glyph unicode="&#xb3;" d="M586 737q16 -4 65 -20q219 -80 219 -328q0 -244 -198 -356q-109 -59 -234 -60q-127 0 -235 62q-160 88 -160 258q0 63 29 115q49 86 145 86q59 0 100 -42t41 -100q0 -35 -18 -65q-33 -57 -92 -58q-16 0 -64 15q66 -123 195 -123q63 0 108 29q111 68 111 245 q0 164 -84 223q-63 45 -203 54v119q129 0 183 40q88 68 88 211q0 88 -37 158q-49 102 -164 103q-145 0 -184 -125q37 25 71 24q41 0 66 -16q57 -33 57 -99q0 -39 -18 -71q-43 -78 -133 -78q-45 0 -80 20q-84 49 -84 168q0 139 110.5 231.5t272.5 92.5q127 0 229 -59 q166 -98 166 -316q0 -119 -57 -209q-59 -86 -211 -129z" />
<glyph unicode="&#xb4;" d="M340 1194l-55 78l172 172q57 57 96 57q49 0 80 -35q29 -33 29 -73q0 -63 -99 -107z" />
<glyph unicode="&#xb5;" horiz-adv-x="1032" d="M35 1081h360v-745q0 -156 92 -156q139 0 140 260v424q0 41 -11.5 55.5t-46.5 14.5h-37v147h361v-862q0 -41 12.5 -56.5t46.5 -15.5h37v-147h-362v131q-31 -63 -97.5 -110.5t-134.5 -47.5q-129 0 -168 119q-12 -47 -12 -86q0 -164 154 -237l-115 -185q-219 43 -219 277 q0 100 20.5 178t73.5 213v612q0 41 -11.5 55.5t-45.5 14.5h-37v147z" />
<glyph unicode="&#x3bc;" horiz-adv-x="1032" d="M35 1081h360v-745q0 -156 92 -156q139 0 140 260v424q0 41 -11.5 55.5t-46.5 14.5h-37v147h361v-862q0 -41 12.5 -56.5t46.5 -15.5h37v-147h-362v131q-31 -63 -97.5 -110.5t-134.5 -47.5q-129 0 -168 119q-12 -47 -12 -86q0 -164 154 -237l-115 -185q-219 43 -219 277 q0 100 20.5 178t73.5 213v612q0 41 -11.5 55.5t-45.5 14.5h-37v147z" />
<glyph unicode="&#xb6;" horiz-adv-x="948" d="M924 1526v-84h-140v-1768h-79v1768h-99v-1768h-80v897l-63 13q-96 18 -181 74.5t-135 134.5q-70 109 -69 245q0 109 47 207q57 111 156 176q170 104 454 105h189z" />
<glyph unicode="&#xb7;" d="M350 877q37 66 115 65q35 0 65 -18q66 -37 66 -115q0 -35 -18 -66q-37 -66 -115 -65q-33 0 -66 18q-66 37 -65 113q0 35 18 68z" />
<glyph unicode="&#x2219;" d="M350 877q37 66 115 65q35 0 65 -18q66 -37 66 -115q0 -35 -18 -66q-37 -66 -115 -65q-33 0 -66 18q-66 37 -65 113q0 35 18 68z" />
<glyph unicode="&#xb8;" d="M223 -319l35 88l23 -11q51 -25 116 -24q80 0 80 53q0 43 -67 43q-8 0 -41 -4l-13 65l127 117h117l-113 -94q186 0 187 -129q0 -55 -33 -88q-66 -66 -195 -66q-109 0 -194 37z" />
<glyph unicode="&#xb9;" d="M186 1262q158 0 230 41q49 31 86 120h116v-1206q0 -70 66 -70h64v-147h-562v147h101q66 0 65 70v897h-166v148z" />
<glyph unicode="&#xba;" horiz-adv-x="911" d="M61 541q0 147 33 280q68 287 357 287q125 0 217 -55q182 -104 182 -512q0 -274 -84 -414q-92 -154 -305 -154q-227 0 -316 154q-84 150 -84 414zM334 541q0 -219 18 -305q20 -102 105 -103q100 0 114 186q6 102 7 222q0 219 -19 305q-20 102 -104 102q-100 0 -115 -186 q-6 -102 -6 -221z" />
<glyph unicode="&#xbb;" horiz-adv-x="948" d="M510 592l-246 -356h-143l186 356l-186 356h143zM426 948h143l246 -356l-246 -356h-143l188 356z" />
<glyph unicode="&#xc0;" horiz-adv-x="1062" d="M544 1573l-223 92q-98 43 -98 107q0 43 31 73q31 35 78 35q39 0 100 -61l168 -168zM397 0h-385v164h37q39 0 51.5 11t22.5 58l280 1190h285l258 -1200q6 -33 18.5 -46t41.5 -13h43v-164h-502v164h43q57 0 57 43q0 8 -4 37l-33 172h-272l-39 -174q-4 -20 -4 -35 q0 -43 59 -43h43v-164zM373 580h207l-93 518z" />
<glyph unicode="&#xc1;" horiz-adv-x="1062" d="M545 1573l-55 78l172 172q57 57 96 57q49 0 80 -35q29 -33 29 -73q0 -63 -99 -107zM397 0h-385v164h37q39 0 51.5 11t22.5 58l280 1190h285l258 -1200q6 -33 18.5 -46t41.5 -13h43v-164h-502v164h43q57 0 57 43q0 8 -4 37l-33 172h-272l-39 -174q-4 -20 -4 -35 q0 -43 59 -43h43v-164zM373 580h207l-93 518z" />
<glyph unicode="&#xc2;" horiz-adv-x="1062" d="M448 1792h197l221 -219h-219l-117 129l-127 -129h-178zM397 0h-385v164h37q39 0 51.5 11t22.5 58l280 1190h285l258 -1200q6 -33 18.5 -46t41.5 -13h43v-164h-502v164h43q57 0 57 43q0 8 -4 37l-33 172h-272l-39 -174q-4 -20 -4 -35q0 -43 59 -43h43v-164zM373 580h207 l-93 518z" />
<glyph unicode="&#xc3;" horiz-adv-x="1062" d="M311 1573l-137 37l8 37q16 80 69.5 131t125.5 51q74 0 252 -76q35 -16 61 -16q59 0 74 61l6 31l147 -33l-8 -41q-41 -182 -209 -182q-82 0 -137 27l-100 43q-47 23 -76 22q-47 0 -68 -69zM397 0h-385v164h37q39 0 51.5 11t22.5 58l280 1190h285l258 -1200q6 -33 18.5 -46 t41.5 -13h43v-164h-502v164h43q57 0 57 43q0 8 -4 37l-33 172h-272l-39 -174q-4 -20 -4 -35q0 -43 59 -43h43v-164zM373 580h207l-93 518z" />
<glyph unicode="&#xc4;" horiz-adv-x="1062" d="M336 1837q39 0 72 -20q61 -41 61 -113q0 -35 -18 -65q-37 -66 -115 -66q-35 0 -65 18q-63 37 -66 113q0 37 19 68q40 65 112 65zM752 1837q39 0 72 -20q61 -41 61 -113q0 -35 -18 -65q-37 -66 -115 -66q-35 0 -66 18q-63 37 -65 113q0 37 18 68q41 65 113 65zM397 0h-385 v164h37q39 0 51.5 11t22.5 58l280 1190h285l258 -1200q6 -33 18.5 -46t41.5 -13h43v-164h-502v164h43q57 0 57 43q0 8 -4 37l-33 172h-272l-39 -174q-4 -20 -4 -35q0 -43 59 -43h43v-164zM373 580h207l-93 518z" />
<glyph unicode="&#xc5;" horiz-adv-x="1062" d="M775 1663.5q0 -94.5 -67 -161t-161 -66.5t-160.5 66.5t-66.5 161t66.5 161t160.5 66.5t161 -66.5t67 -161zM645 1663q0 41 -29.5 70t-68.5 29t-68.5 -29t-29.5 -70t29.5 -69.5t68.5 -28.5t68.5 28.5t29.5 69.5zM397 0h-385v164h37q39 0 51.5 11t22.5 58l280 1190h285 l258 -1200q6 -33 18.5 -46t41.5 -13h43v-164h-502v164h43q57 0 57 43q0 8 -4 37l-33 172h-272l-39 -174q-4 -20 -4 -35q0 -43 59 -43h43v-164zM373 580h207l-93 518z" />
<glyph unicode="&#xc7;" horiz-adv-x="946" d="M182 -342l35 88l23 -11q51 -25 116 -24q80 0 80 53q0 43 -67 43q-8 0 -41 -4l-13 65l127 117h117l-113 -94q186 0 187 -129q0 -55 -33 -88q-66 -66 -195 -66q-109 0 -194 37zM709 1315l41 108h114v-544h-139v14q0 209 -51 309q-43 84 -129 84q-119 0 -146 -156 q-27 -141 -26 -462q0 -170 8 -295q14 -236 164 -236q29 0 49 4t47 25.5t43 59.5t28.5 112t12.5 176v84h139v-137q0 -487 -364 -488q-96 0 -183.5 41t-132.5 111q-106 164 -106 551q0 205 37 379q55 252 211 352q68 43 149 43q142 0 234 -135z" />
<glyph unicode="&#xc8;" horiz-adv-x="1087" d="M528 1573l-223 92q-98 43 -98 107q0 43 31 73q31 35 78 35q39 0 100 -61l168 -168zM61 1423h936v-481h-139v57q0 88 -16.5 142.5t-55 79t-78.5 32t-110 7.5h-139v-435h61q35 0 53.5 5.5t31.5 29t13 68.5v94h140v-557h-140v94q0 33 -5 52.5t-27.5 35t-65.5 15.5h-61v-498 h145q72 0 127 16q127 41 127 264v84h139v-528h-936v164h41q35 0 48.5 12t13.5 57v957q0 45 -13.5 57.5t-48.5 12.5h-41v163z" />
<glyph unicode="&#xc9;" horiz-adv-x="1087" d="M528 1573l-55 78l172 172q57 57 96 57q49 0 80 -35q29 -33 29 -73q0 -63 -99 -107zM61 1423h936v-481h-139v57q0 88 -16.5 142.5t-55 79t-78.5 32t-110 7.5h-139v-435h61q35 0 53.5 5.5t31.5 29t13 68.5v94h140v-557h-140v94q0 33 -5 52.5t-27.5 35t-65.5 15.5h-61v-498 h145q72 0 127 16q127 41 127 264v84h139v-528h-936v164h41q35 0 48.5 12t13.5 57v957q0 45 -13.5 57.5t-48.5 12.5h-41v163z" />
<glyph unicode="&#xca;" horiz-adv-x="1087" d="M432 1792h197l221 -219h-219l-117 129l-127 -129h-178zM61 1423h936v-481h-139v57q0 88 -16.5 142.5t-55 79t-78.5 32t-110 7.5h-139v-435h61q35 0 53.5 5.5t31.5 29t13 68.5v94h140v-557h-140v94q0 33 -5 52.5t-27.5 35t-65.5 15.5h-61v-498h145q72 0 127 16 q127 41 127 264v84h139v-528h-936v164h41q35 0 48.5 12t13.5 57v957q0 45 -13.5 57.5t-48.5 12.5h-41v163z" />
<glyph unicode="&#xcb;" horiz-adv-x="1087" d="M319 1837q39 0 72 -20q61 -41 61 -113q0 -35 -18 -65q-37 -66 -115 -66q-35 0 -65 18q-63 37 -66 113q0 37 19 68q40 65 112 65zM735 1837q39 0 72 -20q61 -41 61 -113q0 -35 -18 -65q-37 -66 -115 -66q-35 0 -66 18q-63 37 -65 113q0 37 18 68q41 65 113 65zM61 1423 h936v-481h-139v57q0 88 -16.5 142.5t-55 79t-78.5 32t-110 7.5h-139v-435h61q35 0 53.5 5.5t31.5 29t13 68.5v94h140v-557h-140v94q0 33 -5 52.5t-27.5 35t-65.5 15.5h-61v-498h145q72 0 127 16q127 41 127 264v84h139v-528h-936v164h41q35 0 48.5 12t13.5 57v957 q0 45 -13.5 57.5t-48.5 12.5h-41v163z" />
<glyph unicode="&#xcc;" horiz-adv-x="622" d="M311 1573l-223 92q-98 43 -98 107q0 43 31 73q31 35 78 35q39 0 100 -61l168 -168zM561 0h-500v164h41q35 0 48.5 12t13.5 57v957q0 45 -13.5 57.5t-48.5 12.5h-41v163h500v-163h-41q-35 0 -48 -12.5t-13 -57.5v-957q0 -45 13 -57t48 -12h41v-164z" />
<glyph unicode="&#xcd;" horiz-adv-x="622" d="M311 1573l-55 78l172 172q57 57 96 57q49 0 80 -35q29 -33 29 -73q0 -63 -99 -107zM561 0h-500v164h41q35 0 48.5 12t13.5 57v957q0 45 -13.5 57.5t-48.5 12.5h-41v163h500v-163h-41q-35 0 -48 -12.5t-13 -57.5v-957q0 -45 13 -57t48 -12h41v-164z" />
<glyph unicode="&#xce;" horiz-adv-x="622" d="M215 1792h197l221 -219h-219l-117 129l-127 -129h-178zM561 0h-500v164h41q35 0 48.5 12t13.5 57v957q0 45 -13.5 57.5t-48.5 12.5h-41v163h500v-163h-41q-35 0 -48 -12.5t-13 -57.5v-957q0 -45 13 -57t48 -12h41v-164z" />
<glyph unicode="&#xcf;" horiz-adv-x="622" d="M102 1837q39 0 72 -20q61 -41 61 -113q0 -35 -18 -65q-37 -66 -115 -66q-35 0 -65 18q-63 37 -66 113q0 37 19 68q40 65 112 65zM518 1837q39 0 72 -20q61 -41 61 -113q0 -35 -18 -65q-37 -66 -115 -66q-35 0 -66 18q-63 37 -65 113q0 37 18 68q41 65 113 65zM561 0h-500 v164h41q35 0 48.5 12t13.5 57v957q0 45 -13.5 57.5t-48.5 12.5h-41v163h500v-163h-41q-35 0 -48 -12.5t-13 -57.5v-957q0 -45 13 -57t48 -12h41v-164z" />
<glyph unicode="&#xd1;" horiz-adv-x="1144" d="M342 1573l-137 37l8 37q16 80 69.5 131t125.5 51q74 0 252 -76q35 -16 61 -16q59 0 74 61l6 31l147 -33l-8 -41q-41 -182 -209 -182q-82 0 -137 27l-100 43q-47 23 -76 22q-47 0 -68 -69zM991 0h-264l-393 997v-764q0 -45 13 -57t48 -12h41v-164h-377v164h41 q35 0 48.5 12t13.5 57v957q0 45 -13.5 57.5t-48.5 12.5h-41v163h400l360 -948v715q0 45 -13 57.5t-48 12.5h-41v163h377v-163h-41q-35 0 -48.5 -12.5t-13.5 -57.5v-1190z" />
<glyph unicode="&#xd2;" horiz-adv-x="1021" d="M509 1573l-223 92q-98 43 -98 107q0 43 31 73q31 35 78 35q39 0 100 -61l168 -168zM78 711q0 180 12 321q14 182 111 291q117 127 309 127q90 0 176 -35q158 -68 211 -227q47 -137 47 -477q0 -178 -12 -320q-18 -188 -113 -291q-117 -127 -309 -127q-96 0 -176 35 q-219 96 -244 383q-12 136 -12 320zM371 434q0 -213 63 -272q29 -25 76 -25q119 0 133 182q6 74 6 115v555q0 219 -61 271q-27 27 -78 26q-117 0 -133 -182q-6 -72 -6 -115v-555z" />
<glyph unicode="&#xd3;" horiz-adv-x="1021" d="M510 1573l-55 78l172 172q57 57 96 57q49 0 80 -35q29 -33 29 -73q0 -63 -99 -107zM78 711q0 180 12 321q14 182 111 291q117 127 309 127q90 0 176 -35q158 -68 211 -227q47 -137 47 -477q0 -178 -12 -320q-18 -188 -113 -291q-117 -127 -309 -127q-96 0 -176 35 q-219 96 -244 383q-12 136 -12 320zM371 434q0 -213 63 -272q29 -25 76 -25q119 0 133 182q6 74 6 115v555q0 219 -61 271q-27 27 -78 26q-117 0 -133 -182q-6 -72 -6 -115v-555z" />
<glyph unicode="&#xd4;" horiz-adv-x="1021" d="M412 1792h197l221 -219h-219l-117 129l-127 -129h-178zM78 711q0 180 12 321q14 182 111 291q117 127 309 127q90 0 176 -35q158 -68 211 -227q47 -137 47 -477q0 -178 -12 -320q-18 -188 -113 -291q-117 -127 -309 -127q-96 0 -176 35q-219 96 -244 383q-12 136 -12 320 zM371 434q0 -213 63 -272q29 -25 76 -25q119 0 133 182q6 74 6 115v555q0 219 -61 271q-27 27 -78 26q-117 0 -133 -182q-6 -72 -6 -115v-555z" />
<glyph unicode="&#xd5;" horiz-adv-x="1021" d="M276 1573l-137 37l8 37q16 80 69.5 131t125.5 51q74 0 252 -76q35 -16 61 -16q59 0 74 61l6 31l147 -33l-8 -41q-41 -182 -209 -182q-82 0 -137 27l-100 43q-47 23 -76 22q-47 0 -68 -69zM78 711q0 180 12 321q14 182 111 291q117 127 309 127q90 0 176 -35 q158 -68 211 -227q47 -137 47 -477q0 -178 -12 -320q-18 -188 -113 -291q-117 -127 -309 -127q-96 0 -176 35q-219 96 -244 383q-12 136 -12 320zM371 434q0 -213 63 -272q29 -25 76 -25q119 0 133 182q6 74 6 115v555q0 219 -61 271q-27 27 -78 26q-117 0 -133 -182 q-6 -72 -6 -115v-555z" />
<glyph unicode="&#xd6;" horiz-adv-x="1021" d="M301 1837q39 0 72 -20q61 -41 61 -113q0 -35 -18 -65q-37 -66 -115 -66q-35 0 -65 18q-63 37 -66 113q0 37 19 68q40 65 112 65zM717 1837q39 0 72 -20q61 -41 61 -113q0 -35 -18 -65q-37 -66 -115 -66q-35 0 -66 18q-63 37 -65 113q0 37 18 68q41 65 113 65zM78 711 q0 180 12 321q14 182 111 291q117 127 309 127q90 0 176 -35q158 -68 211 -227q47 -137 47 -477q0 -178 -12 -320q-18 -188 -113 -291q-117 -127 -309 -127q-96 0 -176 35q-219 96 -244 383q-12 136 -12 320zM371 434q0 -213 63 -272q29 -25 76 -25q119 0 133 182 q6 74 6 115v555q0 219 -61 271q-27 27 -78 26q-117 0 -133 -182q-6 -72 -6 -115v-555z" />
<glyph unicode="&#xd9;" horiz-adv-x="1079" d="M540 1573l-223 92q-98 43 -98 107q0 43 31 73q31 35 78 35q39 0 100 -61l168 -168zM49 1423h500v-163h-41q-35 0 -48.5 -12.5t-13.5 -57.5v-856q0 -43 3.5 -69.5t16.5 -60.5t45 -50.5t83 -16.5q59 0 98 27q68 43 68 205v821q0 45 -13.5 57.5t-48.5 12.5h-41v163h377v-163 h-41q-35 0 -48 -12.5t-13 -57.5v-764q0 -227 -66 -317q-96 -135 -325 -136q-193 0 -289 90q-74 68 -88 150q-12 80 -12 221v756q0 45 -13.5 57.5t-48.5 12.5h-41v163z" />
<glyph unicode="&#xda;" horiz-adv-x="1079" d="M541 1573l-55 78l172 172q57 57 96 57q49 0 80 -35q29 -33 29 -73q0 -63 -99 -107zM49 1423h500v-163h-41q-35 0 -48.5 -12.5t-13.5 -57.5v-856q0 -43 3.5 -69.5t16.5 -60.5t45 -50.5t83 -16.5q59 0 98 27q68 43 68 205v821q0 45 -13.5 57.5t-48.5 12.5h-41v163h377v-163 h-41q-35 0 -48 -12.5t-13 -57.5v-764q0 -227 -66 -317q-96 -135 -325 -136q-193 0 -289 90q-74 68 -88 150q-12 80 -12 221v756q0 45 -13.5 57.5t-48.5 12.5h-41v163z" />
<glyph unicode="&#xdb;" horiz-adv-x="1079" d="M444 1792h197l221 -219h-219l-117 129l-127 -129h-178zM49 1423h500v-163h-41q-35 0 -48.5 -12.5t-13.5 -57.5v-856q0 -43 3.5 -69.5t16.5 -60.5t45 -50.5t83 -16.5q59 0 98 27q68 43 68 205v821q0 45 -13.5 57.5t-48.5 12.5h-41v163h377v-163h-41q-35 0 -48 -12.5 t-13 -57.5v-764q0 -227 -66 -317q-96 -135 -325 -136q-193 0 -289 90q-74 68 -88 150q-12 80 -12 221v756q0 45 -13.5 57.5t-48.5 12.5h-41v163z" />
<glyph unicode="&#xdc;" horiz-adv-x="1079" d="M332 1837q39 0 72 -20q61 -41 61 -113q0 -35 -18 -65q-37 -66 -115 -66q-35 0 -65 18q-63 37 -66 113q0 37 19 68q40 65 112 65zM748 1837q39 0 72 -20q61 -41 61 -113q0 -35 -18 -65q-37 -66 -115 -66q-35 0 -66 18q-63 37 -65 113q0 37 18 68q41 65 113 65zM49 1423 h500v-163h-41q-35 0 -48.5 -12.5t-13.5 -57.5v-856q0 -43 3.5 -69.5t16.5 -60.5t45 -50.5t83 -16.5q59 0 98 27q68 43 68 205v821q0 45 -13.5 57.5t-48.5 12.5h-41v163h377v-163h-41q-35 0 -48 -12.5t-13 -57.5v-764q0 -227 -66 -317q-96 -135 -325 -136q-193 0 -289 90 q-74 68 -88 150q-12 80 -12 221v756q0 45 -13.5 57.5t-48.5 12.5h-41v163z" />
<glyph unicode="&#xdd;" horiz-adv-x="1017" d="M512 1573l-55 78l172 172q57 57 96 57q49 0 80 -35q29 -33 29 -73q0 -63 -99 -107zM608 1423h389v-163h-30q-57 0 -84 -70l-213 -600v-357q0 -41 13 -55t50 -14h76v-164h-573v164h77q39 0 50.5 12t11.5 57v349l-250 624q-23 53 -57 54h-43v163h501v-163h-43 q-55 0 -55 -35q0 -12 6 -35l133 -379l125 379q8 29 8 35q0 35 -45 35h-47v163z" />
<glyph unicode="&#xe0;" horiz-adv-x="1044" d="M485 1231l-223 92q-98 43 -98 107q0 43 31 73q31 35 78 35q39 0 100 -61l168 -168zM266 922q78 -6 107 -35q41 -37 41 -92q0 -37 -19 -70q-43 -78 -137 -78q-45 0 -88 25q-84 53 -84 153q0 115 94 191q117 92 305 92q109 0 205 -43q133 -59 152 -174q6 -39 6 -121v-551 q0 -86 31 -86q39 0 39 86v88h110v-90q0 -94 -37 -151q-61 -92 -180 -93q-156 0 -205 156q-104 -156 -268 -156q-82 0 -158 41q-127 74 -127 228q0 193 203 286l43 19l117 51q172 78 172 195q0 41 -19 71q-47 84 -159 84q-55 0 -101 -14zM582 555q-201 -150 -244 -236 q-12 -29 -12 -67q0 -72 51 -105q27 -14 53 -14q96 0 133 131q18 68 19 133v158z" />
<glyph unicode="&#xe1;" horiz-adv-x="1044" d="M485 1231l-55 78l172 172q57 57 96 57q49 0 80 -35q29 -33 29 -73q0 -63 -99 -107zM266 922q78 -6 107 -35q41 -37 41 -92q0 -37 -19 -70q-43 -78 -137 -78q-45 0 -88 25q-84 53 -84 153q0 115 94 191q117 92 305 92q109 0 205 -43q133 -59 152 -174q6 -39 6 -121v-551 q0 -86 31 -86q39 0 39 86v88h110v-90q0 -94 -37 -151q-61 -92 -180 -93q-156 0 -205 156q-104 -156 -268 -156q-82 0 -158 41q-127 74 -127 228q0 193 203 286l43 19l117 51q172 78 172 195q0 41 -19 71q-47 84 -159 84q-55 0 -101 -14zM582 555q-201 -150 -244 -236 q-12 -29 -12 -67q0 -72 51 -105q27 -14 53 -14q96 0 133 131q18 68 19 133v158z" />
<glyph unicode="&#xe2;" horiz-adv-x="1044" d="M387 1450h197l221 -219h-219l-117 129l-127 -129h-178zM266 922q78 -6 107 -35q41 -37 41 -92q0 -37 -19 -70q-43 -78 -137 -78q-45 0 -88 25q-84 53 -84 153q0 115 94 191q117 92 305 92q109 0 205 -43q133 -59 152 -174q6 -39 6 -121v-551q0 -86 31 -86q39 0 39 86v88 h110v-90q0 -94 -37 -151q-61 -92 -180 -93q-156 0 -205 156q-104 -156 -268 -156q-82 0 -158 41q-127 74 -127 228q0 193 203 286l43 19l117 51q172 78 172 195q0 41 -19 71q-47 84 -159 84q-55 0 -101 -14zM582 555q-201 -150 -244 -236q-12 -29 -12 -67q0 -72 51 -105 q27 -14 53 -14q96 0 133 131q18 68 19 133v158z" />
<glyph unicode="&#xe3;" horiz-adv-x="1044" d="M252 1231l-137 37l8 37q16 80 69.5 131t125.5 51q74 0 252 -76q35 -16 61 -16q59 0 74 61l6 31l147 -33l-8 -41q-41 -182 -209 -182q-82 0 -137 27l-100 43q-47 23 -76 22q-47 0 -68 -69zM266 922q78 -6 107 -35q41 -37 41 -92q0 -37 -19 -70q-43 -78 -137 -78 q-45 0 -88 25q-84 53 -84 153q0 115 94 191q117 92 305 92q109 0 205 -43q133 -59 152 -174q6 -39 6 -121v-551q0 -86 31 -86q39 0 39 86v88h110v-90q0 -94 -37 -151q-61 -92 -180 -93q-156 0 -205 156q-104 -156 -268 -156q-82 0 -158 41q-127 74 -127 228q0 193 203 286 l43 19l117 51q172 78 172 195q0 41 -19 71q-47 84 -159 84q-55 0 -101 -14zM582 555q-201 -150 -244 -236q-12 -29 -12 -67q0 -72 51 -105q27 -14 53 -14q96 0 133 131q18 68 19 133v158z" />
<glyph unicode="&#xe4;" horiz-adv-x="1044" d="M276 1495q39 0 72 -20q61 -41 61 -113q0 -35 -18 -65q-37 -66 -115 -66q-35 0 -65 18q-63 37 -66 113q0 37 19 68q40 65 112 65zM692 1495q39 0 72 -20q61 -41 61 -113q0 -35 -18 -65q-37 -66 -115 -66q-35 0 -66 18q-63 37 -65 113q0 37 18 68q41 65 113 65zM266 922 q78 -6 107 -35q41 -37 41 -92q0 -37 -19 -70q-43 -78 -137 -78q-45 0 -88 25q-84 53 -84 153q0 115 94 191q117 92 305 92q109 0 205 -43q133 -59 152 -174q6 -39 6 -121v-551q0 -86 31 -86q39 0 39 86v88h110v-90q0 -94 -37 -151q-61 -92 -180 -93q-156 0 -205 156 q-104 -156 -268 -156q-82 0 -158 41q-127 74 -127 228q0 193 203 286l43 19l117 51q172 78 172 195q0 41 -19 71q-47 84 -159 84q-55 0 -101 -14zM582 555q-201 -150 -244 -236q-12 -29 -12 -67q0 -72 51 -105q27 -14 53 -14q96 0 133 131q18 68 19 133v158z" />
<glyph unicode="&#xe5;" horiz-adv-x="1044" d="M713 1458.5q0 -94.5 -67 -161t-161 -66.5t-160.5 66.5t-66.5 161t66.5 161t160.5 66.5t161 -66.5t67 -161zM583 1458q0 41 -29.5 70t-68.5 29t-68.5 -29t-29.5 -70t29.5 -69.5t68.5 -28.5t68.5 28.5t29.5 69.5zM266 922q78 -6 107 -35q41 -37 41 -92q0 -37 -19 -70 q-43 -78 -137 -78q-45 0 -88 25q-84 53 -84 153q0 115 94 191q117 92 305 92q109 0 205 -43q133 -59 152 -174q6 -39 6 -121v-551q0 -86 31 -86q39 0 39 86v88h110v-90q0 -94 -37 -151q-61 -92 -180 -93q-156 0 -205 156q-104 -156 -268 -156q-82 0 -158 41 q-127 74 -127 228q0 193 203 286l43 19l117 51q172 78 172 195q0 41 -19 71q-47 84 -159 84q-55 0 -101 -14zM582 555q-201 -150 -244 -236q-12 -29 -12 -67q0 -72 51 -105q27 -14 53 -14q96 0 133 131q18 68 19 133v158z" />
<glyph unicode="&#xe7;" horiz-adv-x="870" d="M133 -342l35 88l23 -11q51 -25 116 -24q80 0 80 53q0 43 -67 43q-8 0 -41 -4l-13 65l127 117h117l-113 -94q186 0 187 -129q0 -55 -33 -88q-66 -66 -195 -66q-109 0 -194 37zM637 430h156v-53q0 -172 -62 -268q-86 -135 -280 -136q-186 0 -287 138q-102 143 -103 401 q0 307 105 446q113 150 309 150q111 0 195 -51q131 -76 131 -248q0 -68 -29 -121q-41 -78 -145 -78q-39 0 -68 15q-70 41 -70 123q0 41 19 71q39 57 100 58q18 0 54 -11q-43 82 -146 82q-106 0 -145 -88q-37 -86 -37 -299q0 -135 8 -231q18 -197 141 -197q154 0 154 238v59z " />
<glyph unicode="&#xe8;" horiz-adv-x="884" d="M454 1231l-223 92q-98 43 -98 107q0 43 31 73q31 35 78 35q39 0 100 -61l168 -168zM334 506q0 -190 18 -260q33 -113 135 -113q37 0 66 17q86 55 86 215v51h176v-37q0 -274 -176 -365q-82 -41 -176 -41q-117 0 -207 58q-195 127 -195 463q0 117 23 245q43 229 188 320 q84 49 183 49q190 0 290 -162q70 -109 70 -354v-86h-481zM334 653h209q0 172 -15 219q-23 76 -88 76q-70 0 -94 -84q-12 -45 -12 -211z" />
<glyph unicode="&#xe9;" horiz-adv-x="884" d="M455 1231l-55 78l172 172q57 57 96 57q49 0 80 -35q29 -33 29 -73q0 -63 -99 -107zM334 506q0 -190 18 -260q33 -113 135 -113q37 0 66 17q86 55 86 215v51h176v-37q0 -274 -176 -365q-82 -41 -176 -41q-117 0 -207 58q-195 127 -195 463q0 117 23 245q43 229 188 320 q84 49 183 49q190 0 290 -162q70 -109 70 -354v-86h-481zM334 653h209q0 172 -15 219q-23 76 -88 76q-70 0 -94 -84q-12 -45 -12 -211z" />
<glyph unicode="&#xea;" horiz-adv-x="884" d="M358 1450h197l221 -219h-219l-117 129l-127 -129h-178zM334 506q0 -190 18 -260q33 -113 135 -113q37 0 66 17q86 55 86 215v51h176v-37q0 -274 -176 -365q-82 -41 -176 -41q-117 0 -207 58q-195 127 -195 463q0 117 23 245q43 229 188 320q84 49 183 49q190 0 290 -162 q70 -109 70 -354v-86h-481zM334 653h209q0 172 -15 219q-23 76 -88 76q-70 0 -94 -84q-12 -45 -12 -211z" />
<glyph unicode="&#xeb;" horiz-adv-x="884" d="M246 1495q39 0 72 -20q61 -41 61 -113q0 -35 -18 -65q-37 -66 -115 -66q-35 0 -65 18q-63 37 -66 113q0 37 19 68q40 65 112 65zM662 1495q39 0 72 -20q61 -41 61 -113q0 -35 -18 -65q-37 -66 -115 -66q-35 0 -66 18q-63 37 -65 113q0 37 18 68q41 65 113 65zM334 506 q0 -190 18 -260q33 -113 135 -113q37 0 66 17q86 55 86 215v51h176v-37q0 -274 -176 -365q-82 -41 -176 -41q-117 0 -207 58q-195 127 -195 463q0 117 23 245q43 229 188 320q84 49 183 49q190 0 290 -162q70 -109 70 -354v-86h-481zM334 653h209q0 172 -15 219 q-23 76 -88 76q-70 0 -94 -84q-12 -45 -12 -211z" />
<glyph unicode="&#xec;" horiz-adv-x="548" d="M229 1231l-223 92q-98 43 -98 107q0 43 31 73q31 35 78 35q39 0 100 -61l168 -168zM504 0h-455v147h37q35 0 46 14.5t11 55.5v647q0 41 -11 55.5t-46 14.5h-37v147h361l-2 -862q0 -41 12 -56.5t47 -15.5h37v-147z" />
<glyph unicode="&#xed;" horiz-adv-x="548" d="M229 1231l-55 78l172 172q57 57 96 57q49 0 80 -35q29 -33 29 -73q0 -63 -99 -107zM504 0h-455v147h37q35 0 46 14.5t11 55.5v647q0 41 -11 55.5t-46 14.5h-37v147h361l-2 -862q0 -41 12 -56.5t47 -15.5h37v-147z" />
<glyph unicode="&#xee;" horiz-adv-x="548" d="M133 1450h197l221 -219h-219l-117 129l-127 -129h-178zM504 0h-455v147h37q35 0 46 14.5t11 55.5v647q0 41 -11 55.5t-46 14.5h-37v147h361l-2 -862q0 -41 12 -56.5t47 -15.5h37v-147z" />
<glyph unicode="&#xef;" horiz-adv-x="548" d="M20 1495q39 0 72 -20q61 -41 61 -113q0 -35 -18 -65q-37 -66 -115 -66q-35 0 -65 18q-63 37 -66 113q0 37 19 68q40 65 112 65zM436 1495q39 0 72 -20q61 -41 61 -113q0 -35 -18 -65q-37 -66 -115 -66q-35 0 -66 18q-63 37 -65 113q0 37 18 68q41 65 113 65zM504 0h-455 v147h37q35 0 46 14.5t11 55.5v647q0 41 -11 55.5t-46 14.5h-37v147h361l-2 -862q0 -41 12 -56.5t47 -15.5h37v-147z" />
<glyph unicode="&#xf1;" horiz-adv-x="1040" d="M293 1231l-137 37l8 37q16 80 69.5 131t125.5 51q74 0 252 -76q35 -16 61 -16q59 0 74 61l6 31l147 -33l-8 -41q-41 -182 -209 -182q-82 0 -137 27l-100 43q-47 23 -76 22q-47 0 -68 -69zM494 0h-445v147h37q35 0 46 14.5t11 55.5v647q0 41 -11 55.5t-46 14.5h-37v147 h361v-135l49 60q92 102 221 102q59 0 102 -21q102 -45 121 -159q6 -51 6 -152l-2 -557q0 -41 12.5 -56.5t47.5 -15.5h37v-147h-445v147h27q35 0 46 14.5t11 55.5v533q0 53 -4 80.5t-24.5 49t-59.5 21.5q-145 0 -145 -266v-418q0 -41 11 -55.5t46 -14.5h27v-147z" />
<glyph unicode="&#xf2;" horiz-adv-x="911" d="M450 1231l-223 92q-98 43 -98 107q0 43 31 73q31 35 78 35q39 0 100 -61l168 -168zM61 541q0 147 33 280q68 287 357 287q125 0 217 -55q182 -104 182 -512q0 -274 -84 -414q-92 -154 -305 -154q-227 0 -316 154q-84 150 -84 414zM334 541q0 -219 18 -305 q20 -102 105 -103q100 0 114 186q6 102 7 222q0 219 -19 305q-20 102 -104 102q-100 0 -115 -186q-6 -102 -6 -221z" />
<glyph unicode="&#xf3;" horiz-adv-x="911" d="M451 1231l-55 78l172 172q57 57 96 57q49 0 80 -35q29 -33 29 -73q0 -63 -99 -107zM61 541q0 147 33 280q68 287 357 287q125 0 217 -55q182 -104 182 -512q0 -274 -84 -414q-92 -154 -305 -154q-227 0 -316 154q-84 150 -84 414zM334 541q0 -219 18 -305 q20 -102 105 -103q100 0 114 186q6 102 7 222q0 219 -19 305q-20 102 -104 102q-100 0 -115 -186q-6 -102 -6 -221z" />
<glyph unicode="&#xf4;" horiz-adv-x="911" d="M354 1450h197l221 -219h-219l-117 129l-127 -129h-178zM61 541q0 147 33 280q68 287 357 287q125 0 217 -55q182 -104 182 -512q0 -274 -84 -414q-92 -154 -305 -154q-227 0 -316 154q-84 150 -84 414zM334 541q0 -219 18 -305q20 -102 105 -103q100 0 114 186 q6 102 7 222q0 219 -19 305q-20 102 -104 102q-100 0 -115 -186q-6 -102 -6 -221z" />
<glyph unicode="&#xf5;" horiz-adv-x="911" d="M215 1231l-137 37l8 37q16 80 69.5 131t125.5 51q74 0 252 -76q35 -16 61 -16q59 0 74 61l6 31l147 -33l-8 -41q-41 -182 -209 -182q-82 0 -137 27l-100 43q-47 23 -76 22q-47 0 -68 -69zM61 541q0 147 33 280q68 287 357 287q125 0 217 -55q182 -104 182 -512 q0 -274 -84 -414q-92 -154 -305 -154q-227 0 -316 154q-84 150 -84 414zM334 541q0 -219 18 -305q20 -102 105 -103q100 0 114 186q6 102 7 222q0 219 -19 305q-20 102 -104 102q-100 0 -115 -186q-6 -102 -6 -221z" />
<glyph unicode="&#xf6;" horiz-adv-x="911" d="M241 1495q39 0 72 -20q61 -41 61 -113q0 -35 -18 -65q-37 -66 -115 -66q-35 0 -65 18q-63 37 -66 113q0 37 19 68q40 65 112 65zM657 1495q39 0 72 -20q61 -41 61 -113q0 -35 -18 -65q-37 -66 -115 -66q-35 0 -66 18q-63 37 -65 113q0 37 18 68q41 65 113 65zM61 541 q0 147 33 280q68 287 357 287q125 0 217 -55q182 -104 182 -512q0 -274 -84 -414q-92 -154 -305 -154q-227 0 -316 154q-84 150 -84 414zM334 541q0 -219 18 -305q20 -102 105 -103q100 0 114 186q6 102 7 222q0 219 -19 305q-20 102 -104 102q-100 0 -115 -186 q-6 -102 -6 -221z" />
<glyph unicode="&#xf9;" horiz-adv-x="1028" d="M458 1231l-223 92q-98 43 -98 107q0 43 31 73q31 35 78 35q39 0 100 -61l168 -168zM29 1081h362v-745q0 -156 92 -156q139 0 140 260v424q0 37 -11.5 53.5t-46.5 16.5h-37v147h361l-2 -862q0 -41 12 -56.5t47 -15.5h37v-147h-360v145q-51 -102 -134 -143 q-55 -29 -122 -29q-106 0 -174 82q-68 86 -68 273v536q0 37 -11.5 53.5t-45.5 16.5h-39v147z" />
<glyph unicode="&#xfa;" horiz-adv-x="1028" d="M459 1231l-55 78l172 172q57 57 96 57q49 0 80 -35q29 -33 29 -73q0 -63 -99 -107zM29 1081h362v-745q0 -156 92 -156q139 0 140 260v424q0 37 -11.5 53.5t-46.5 16.5h-37v147h361l-2 -862q0 -41 12 -56.5t47 -15.5h37v-147h-360v145q-51 -102 -134 -143 q-55 -29 -122 -29q-106 0 -174 82q-68 86 -68 273v536q0 37 -11.5 53.5t-45.5 16.5h-39v147z" />
<glyph unicode="&#xfb;" horiz-adv-x="1028" d="M362 1450h197l221 -219h-219l-117 129l-127 -129h-178zM29 1081h362v-745q0 -156 92 -156q139 0 140 260v424q0 37 -11.5 53.5t-46.5 16.5h-37v147h361l-2 -862q0 -41 12 -56.5t47 -15.5h37v-147h-360v145q-51 -102 -134 -143q-55 -29 -122 -29q-106 0 -174 82 q-68 86 -68 273v536q0 37 -11.5 53.5t-45.5 16.5h-39v147z" />
<glyph unicode="&#xfc;" horiz-adv-x="1028" d="M250 1495q39 0 72 -20q61 -41 61 -113q0 -35 -18 -65q-37 -66 -115 -66q-35 0 -65 18q-63 37 -66 113q0 37 19 68q40 65 112 65zM666 1495q39 0 72 -20q61 -41 61 -113q0 -35 -18 -65q-37 -66 -115 -66q-35 0 -66 18q-63 37 -65 113q0 37 18 68q41 65 113 65zM29 1081 h362v-745q0 -156 92 -156q139 0 140 260v424q0 37 -11.5 53.5t-46.5 16.5h-37v147h361l-2 -862q0 -41 12 -56.5t47 -15.5h37v-147h-360v145q-51 -102 -134 -143q-55 -29 -122 -29q-106 0 -174 82q-68 86 -68 273v536q0 37 -11.5 53.5t-45.5 16.5h-39v147z" />
<glyph unicode="&#xfd;" horiz-adv-x="933" d="M469 1231l-55 78l172 172q57 57 96 57q49 0 80 -35q29 -33 29 -73q0 -63 -99 -107zM14 1081h478v-147h-29q-59 0 -60 -27v-8l9 -37l120 -481l130 477q10 35 10 51q0 25 -62 25h-43v147h357v-147h-37q-14 0 -23 -6q-12 -6 -30 -64l-291 -923q-29 -96 -64 -160 q-74 -139 -227 -139q-68 0 -121 30q-100 61 -100 172q0 49 22 86q43 70 115 70q41 0 70 -20q55 -33 55 -105q0 -35 -14 -57q-20 -43 -66 -43q-16 0 -37 4q23 -29 60 -29q98 0 135 135l32 115l-280 864q-14 45 -23.5 57.5t-38.5 12.5h-47v147z" />
<glyph unicode="&#xff;" horiz-adv-x="933" d="M260 1495q39 0 72 -20q61 -41 61 -113q0 -35 -18 -65q-37 -66 -115 -66q-35 0 -65 18q-63 37 -66 113q0 37 19 68q40 65 112 65zM676 1495q39 0 72 -20q61 -41 61 -113q0 -35 -18 -65q-37 -66 -115 -66q-35 0 -66 18q-63 37 -65 113q0 37 18 68q41 65 113 65zM14 1081 h478v-147h-29q-59 0 -60 -27v-8l9 -37l120 -481l130 477q10 35 10 51q0 25 -62 25h-43v147h357v-147h-37q-14 0 -23 -6q-12 -6 -30 -64l-291 -923q-29 -96 -64 -160q-74 -139 -227 -139q-68 0 -121 30q-100 61 -100 172q0 49 22 86q43 70 115 70q41 0 70 -20q55 -33 55 -105 q0 -35 -14 -57q-20 -43 -66 -43q-16 0 -37 4q23 -29 60 -29q98 0 135 135l32 115l-280 864q-14 45 -23.5 57.5t-38.5 12.5h-47v147z" />
<glyph unicode="&#x131;" horiz-adv-x="548" d="M504 0h-455v147h37q35 0 46 14.5t11 55.5v647q0 41 -11 55.5t-46 14.5h-37v147h361l-2 -862q0 -41 12 -56.5t47 -15.5h37v-147z" />
<glyph unicode="&#x152;" horiz-adv-x="1630" d="M1018 1260v-439h61q53 0 75 19.5t22 83.5v94h139v-557h-139v94q0 53 -19.5 77.5t-77.5 24.5h-61v-493h143q72 0 127 16q127 39 127 264v84h139v-528h-829v68q-80 -94 -225 -95q-84 0 -152 33q-215 96 -244 385q-12 135 -12 316q0 178 12 325q14 180 115 289 q117 129 293 129q137 0 213 -82v55h829v-481h-139v57q0 61 -6 101q-18 133 -147 151q-47 8 -132 9h-112zM387 711v-277q0 -213 62 -272q27 -25 73 -25q115 0 129 182q6 74 6 115v277v278q0 217 -59 271q-27 27 -76 26q-113 0 -129 -182q-6 -74 -6 -115v-278z" />
<glyph unicode="&#x153;" horiz-adv-x="1402" d="M1346 506h-480q0 -205 31 -289t125 -84q35 0 63 17q86 55 86 215v51h175v-37q0 -276 -179 -365q-86 -41 -176 -41q-141 0 -262 88l-24 19l-19 -17q-94 -90 -235 -90q-197 0 -295 133q-92 127 -93 408q0 158 29 301q18 86 62 152q100 141 301 141q170 0 264 -109 q111 109 262 109q190 0 297 -162q68 -106 68 -354v-86zM336 535q0 -223 14 -308q18 -94 113 -94q68 0 98 53q33 59 33 324q0 244 -21 332q-20 106 -112 106q-104 0 -117 -172q-8 -91 -8 -241zM866 653h211q0 82 -3 127t-12 89t-30.5 61.5t-56.5 17.5q-61 0 -88 -61 q-21 -44 -21 -234z" />
<glyph unicode="&#x178;" horiz-adv-x="1017" d="M303 1837q39 0 72 -20q61 -41 61 -113q0 -35 -18 -65q-37 -66 -115 -66q-35 0 -65 18q-63 37 -66 113q0 37 19 68q40 65 112 65zM719 1837q39 0 72 -20q61 -41 61 -113q0 -35 -18 -65q-37 -66 -115 -66q-35 0 -66 18q-63 37 -65 113q0 37 18 68q41 65 113 65zM608 1423 h389v-163h-30q-57 0 -84 -70l-213 -600v-357q0 -41 13 -55t50 -14h76v-164h-573v164h77q39 0 50.5 12t11.5 57v349l-250 624q-23 53 -57 54h-43v163h501v-163h-43q-55 0 -55 -35q0 -12 6 -35l133 -379l125 379q8 29 8 35q0 35 -45 35h-47v163z" />
<glyph unicode="&#x2c6;" d="M342 1413h197l221 -219h-219l-117 129l-127 -129h-178z" />
<glyph unicode="&#x2da;" d="M705 1421.5q0 -94.5 -67 -161t-161 -66.5t-160.5 66.5t-66.5 161t66.5 161t160.5 66.5t161 -66.5t67 -161zM575 1421q0 41 -29.5 70t-68.5 29t-68.5 -29t-29.5 -70t29.5 -69.5t68.5 -28.5t68.5 28.5t29.5 69.5z" />
<glyph unicode="&#x2dc;" d="M264 1194l-137 37l8 37q16 80 69.5 131t125.5 51q74 0 252 -76q35 -16 61 -16q59 0 74 61l6 31l147 -33l-8 -41q-41 -182 -209 -182q-82 0 -137 27l-100 43q-47 23 -76 22q-47 0 -68 -69z" />
<glyph unicode="&#x2000;" horiz-adv-x="944" />
<glyph unicode="&#x2001;" horiz-adv-x="1890" />
<glyph unicode="&#x2002;" horiz-adv-x="944" />
<glyph unicode="&#x2003;" horiz-adv-x="1890" />
<glyph unicode="&#x2004;" horiz-adv-x="628" />
<glyph unicode="&#x2005;" horiz-adv-x="471" />
<glyph unicode="&#x2006;" horiz-adv-x="313" />
<glyph unicode="&#x2007;" horiz-adv-x="313" />
<glyph unicode="&#x2008;" horiz-adv-x="235" />
<glyph unicode="&#x2009;" horiz-adv-x="376" />
<glyph unicode="&#x200a;" horiz-adv-x="104" />
<glyph unicode="&#x2010;" horiz-adv-x="454" d="M68 645h319v-178h-319v178z" />
<glyph unicode="&#x2011;" horiz-adv-x="454" d="M68 645h319v-178h-319v178z" />
<glyph unicode="&#x2012;" horiz-adv-x="454" d="M68 645h319v-178h-319v178z" />
<glyph unicode="&#x2013;" d="M33 645h835v-178h-835v178z" />
<glyph unicode="&#x2014;" horiz-adv-x="1366" d="M57 467v178h1235v-178h-1235z" />
<glyph unicode="&#x2018;" horiz-adv-x="454" d="M326 1450l69 -102q-121 -84 -153 -181q66 0 105.5 -32.5t39.5 -94.5q0 -74 -43 -115.5t-104 -41.5q-74 0 -117 51t-43 129q0 92 55 190q66 111 191 197z" />
<glyph unicode="&#x2019;" horiz-adv-x="454" d="M129 881l-70 102q121 84 154 180q-66 0 -105.5 34t-39.5 93q0 74 43 116t104 42q74 0 117 -51t43 -129q0 -92 -56 -191q-65 -110 -190 -196z" />
<glyph unicode="&#x201a;" horiz-adv-x="454" d="M129 -283l-70 103q121 84 154 180q-66 0 -105.5 34t-39.5 93q0 74 43 116t104 42q74 0 117 -51.5t43 -129.5q0 -92 -56 -190q-65 -111 -190 -197z" />
<glyph unicode="&#x201c;" horiz-adv-x="833" d="M696 1450l70 -102q-121 -84 -154 -181q66 0 106 -32.5t40 -94.5q0 -74 -43 -115.5t-105 -41.5q-74 0 -116.5 51t-42.5 129q0 92 55 190q63 111 190 197zM324 1450l69 -102q-121 -84 -153 -181q66 0 105.5 -32.5t39.5 -94.5q0 -74 -43 -115.5t-104 -41.5q-74 0 -117 51 t-43 129q0 92 55 190q64 111 191 197z" />
<glyph unicode="&#x201d;" horiz-adv-x="833" d="M147 881l-69 102q121 84 153 180q-66 0 -105.5 34t-39.5 93q0 74 43 116t104 42q74 0 117 -51t43 -129q0 -92 -55 -191q-64 -110 -191 -196zM520 881l-69 102q121 84 153 180q-66 0 -105.5 34t-39.5 93q0 74 43 116t104 42q74 0 117 -51t43 -129q0 -92 -55 -191 q-64 -110 -191 -196z" />
<glyph unicode="&#x201e;" horiz-adv-x="833" d="M147 -283l-69 103q121 84 153 180q-66 0 -105.5 34t-39.5 93q0 74 43 116t104 42q74 0 117 -51.5t43 -129.5q0 -92 -55 -190q-64 -111 -191 -197zM520 -283l-69 103q121 84 153 180q-66 0 -105.5 34t-39.5 93q0 74 43 116t104 42q74 0 117 -51.5t43 -129.5 q0 -92 -55 -190q-64 -111 -191 -197z" />
<glyph unicode="&#x2022;" horiz-adv-x="1474" d="M225 737q0 213 149.5 362.5t362.5 149.5t362.5 -149.5t149.5 -362.5t-149.5 -362.5t-362.5 -149.5t-362.5 149.5t-149.5 362.5z" />
<glyph unicode="&#x2026;" horiz-adv-x="1368" d="M1038 197q39 49 99 49q51 0 87 -36t36 -87t-36 -87t-87.5 -36t-87 36t-35.5 87q-1 43 24 74zM586 197q39 49 98 49q51 0 87 -36t36 -87t-36 -87t-87 -36t-87 36t-36 87q0 43 25 74zM133 197q39 49 98 49q51 0 87 -36t36 -87t-35.5 -87t-87 -36t-87 36t-35.5 87 q-1 43 24 74z" />
<glyph unicode="&#x202f;" horiz-adv-x="376" />
<glyph unicode="&#x2039;" horiz-adv-x="454" d="M33 592l246 356h143l-186 -356l186 -356h-143z" />
<glyph unicode="&#x203a;" horiz-adv-x="454" d="M422 592l-246 -356h-143l186 356l-186 356h143z" />
<glyph unicode="&#x205f;" horiz-adv-x="471" />
<glyph unicode="&#x20ac;" d="M840 1169h-43q-20 174 -172 174q-100 0 -151.5 -119.5t-63.5 -361.5h352l-31 -90h-321q-2 -20 -2 -63v-68h278l-31 -90h-247q18 -471 221 -471q63 0 108 42t58 128h45l-11 -176q-78 -98 -266 -99q-197 0 -297 143.5t-119 432.5h-118l30 90h78q-2 20 -2 70q0 41 2 61h-108 l30 90h82q25 301 122 444.5t300 143.5q188 0 266 -98z" />
<glyph unicode="&#x2122;" horiz-adv-x="1351" d="M61 1141l15 223h477l10 -223h-39l-20 59q-23 68 -48.5 92.5t-86.5 32.5v-416q0 -66 16 -82q16 -12 72 -18v-39h-285v39l29 4q29 2 37 12q23 16 22 84v416q-39 -6 -53 -12q-57 -29 -107 -172h-39zM596 770v39l25 6q25 6 36 14q27 14 27 76v340q0 45 -8 58.5t-37 17.5 l-43 4v39h223l117 -391l129 391h225v-39l-30 -4q-27 -2 -39 -12q-18 -12 -19 -72v-328q0 -61 12 -75q10 -16 46 -21l30 -4v-39h-284v39l32 6q25 4 33 12q23 16 23 82v404l-181 -543h-24l-158 524v-385q0 -35 6 -53q8 -27 49 -39l33 -8v-39h-223z" />
<glyph unicode="&#xe000;" horiz-adv-x="1080" d="M0 1080h1080v-1080h-1080v1080z" />
<glyph unicode="&#xfb01;" horiz-adv-x="1245" d="M537 0h-480v147h37q35 0 46.5 14.5t11.5 55.5v717h-103v147h103q0 180 45 250q74 119 237 119q82 0 148 -39q94 -51 94 -145q0 -51 -35 -89t-82 -38q-43 0 -73.5 29.5t-30.5 70.5q0 37 22.5 62.5t54.5 25.5q12 0 33 -4q-41 27 -76 27q-117 0 -116 -136q0 -47 30 -133h201 v-147h-186v-717q0 -37 11 -53.5t46 -16.5h62v-147zM745 1081h361l-2 -862q0 -41 12 -56.5t47 -15.5h37v-147h-455v147h37q35 0 46.5 14.5t11.5 55.5v647q0 41 -11.5 55.5t-46.5 14.5h-37v147zM801 1296q0 43 20 78q43 80 137 80q66 0 112 -46t46 -111.5t-46 -111.5t-112 -46 q-41 0 -79 20q-78 45 -78 137z" />
<glyph unicode="&#xfb02;" horiz-adv-x="1245" d="M537 0h-480v147h37q35 0 46.5 14.5t11.5 55.5v717h-103v147h103q0 180 45 250q74 119 239 119q80 0 146 -39q94 -51 94 -145q0 -39 -19 -70q-35 -57 -98 -57q-27 0 -49 12q-55 29 -55 88q0 18 10 43q23 45 67 45q12 0 33 -4q-41 27 -76 27q-33 0 -57 -15 q-59 -31 -59 -121q0 -47 30 -133h201v-147h-186v-717q0 -37 11 -53.5t46 -16.5h62v-147zM745 1423h361l-2 -1204q0 -41 12 -56.5t47 -15.5h37v-147h-455v147h37q35 0 46.5 14.5t11.5 55.5v989q0 41 -11.5 55.5t-46.5 14.5h-37v147z" />
<glyph unicode="&#xfb03;" horiz-adv-x="1826" d="M1327 1081h361l-2 -862q0 -41 12 -56.5t47 -15.5h37v-147h-455v147h37q35 0 46 14.5t11 55.5v647q0 41 -11 55.5t-46 14.5h-37v147zM1382 1296q0 43 21 78q43 80 137 80q45 0 78 -20q80 -45 80 -138q0 -45 -21 -79q-47 -78 -137 -78q-41 0 -80 20q-78 45 -78 137z M688 934v147h103q0 180 45 250q74 119 237 119q84 0 163 -48t79 -136q0 -51 -33 -89t-84 -38q-45 0 -74.5 29.5t-29.5 70.5q0 37 22.5 62.5t54.5 25.5q12 0 33 -4q-41 27 -76 27q-33 0 -57 -15q-59 -29 -59 -121q0 -47 30 -133h201v-147h-186v-717q0 -39 10 -54.5t47 -15.5 h62v-147h-480v147h37q35 0 46.5 14.5t11.5 55.5v717h-103zM49 934v147h103q0 180 45 250q74 119 237 119q84 0 163 -48t79 -136q0 -51 -33 -89t-84 -38q-45 0 -74.5 29.5t-29.5 70.5q0 37 22.5 62.5t54.5 25.5q12 0 33 -4q-41 27 -76 27q-33 0 -57 -15q-59 -29 -59 -121 q0 -47 30 -133h201v-147h-186v-717q0 -39 10 -54.5t47 -15.5h62v-147h-480v147h37q35 0 46.5 14.5t11.5 55.5v717h-103z" />
<glyph unicode="&#xfb04;" horiz-adv-x="1826" d="M1782 0h-455v147h37q35 0 46 14.5t11 55.5v989q0 41 -11 55.5t-46 14.5h-37v147h361l-2 -1204q0 -41 12 -56.5t47 -15.5h37v-147zM688 934v147h103q0 180 45 250q74 119 237 119q84 0 163 -48t79 -136q0 -51 -33 -89t-84 -38q-45 0 -74.5 29.5t-29.5 70.5q0 37 22.5 62.5 t54.5 25.5q12 0 33 -4q-41 27 -76 27q-33 0 -57 -15q-59 -29 -59 -121q0 -47 30 -133h201v-147h-186v-717q0 -39 10 -54.5t47 -15.5h62v-147h-480v147h37q35 0 46.5 14.5t11.5 55.5v717h-103zM49 934v147h103q0 180 45 250q74 119 237 119q84 0 163 -48t79 -136 q0 -51 -33 -89t-84 -38q-45 0 -74.5 29.5t-29.5 70.5q0 37 22.5 62.5t54.5 25.5q12 0 33 -4q-41 27 -76 27q-33 0 -57 -15q-59 -29 -59 -121q0 -47 30 -133h201v-147h-186v-717q0 -39 10 -54.5t47 -15.5h62v-147h-480v147h37q35 0 46.5 14.5t11.5 55.5v717h-103z" />
</font>
</defs>
</svg>
