<?xml version="1.0" standalone="no"?> <!DOCTYPE svg PUBLIC "-//W3C//DTD SVG 1.0//EN" "http://www.w3.org/TR/2001/REC-SVG-20010904/DTD/svg10.dtd" > <svg xmlns="http://www.w3.org/2000/svg" width="100%" height="100%">
<defs >
<font id="clarendon" horiz-adv-x="536" ><font-face
    font-family="SPSL Clarendon"
    units-per-em="1000"
    panose-1="2 0 8 3 0 0 0 0 0 0"
    ascent="869"
    descent="-231"
    alphabetic="0" />
<missing-glyph horiz-adv-x="360" />
<glyph unicode=" " glyph-name="space" horiz-adv-x="360" />
<glyph unicode="!" glyph-name="exclam" horiz-adv-x="334" d="M204 177H122V207Q122 295 108 364T81 479T67 558Q67 620 93 655T162 690Q206 690 232 655T259 558Q259 526 246 480T218 364T204 207V177ZM72 27T72 59T97 111T163 132T228 112T254 59T229 7T163
-14Q123 -14 98 6Z" />
<glyph unicode="&quot;" glyph-name="quotedbl" horiz-adv-x="436" d="M181 691V458H85V691H181ZM351 691V458H255V691H351Z" />
<glyph unicode="#" glyph-name="numbersign" horiz-adv-x="944" d="M598 0H481L515 160H359L325 0H208L242 160H95L111 242H258L295 411H146L162 493H312L344 652H463L429 493H585L619 652H736L702 493H849L833 411H686L649 242H797L782 160H632L598 0ZM532 242L569
411H412L375 242H532Z" />
<glyph unicode="$" glyph-name="dollar" horiz-adv-x="798" d="M309 691H400V628Q475 618 526 585T577 502Q577 470 558 449T505 428Q475 428 456 444T436 486Q436 522 468 538Q438 557 400 557V399Q491 372 542 332T593 224Q593 154 542 113T400 64V-18H309V64Q228
75 175 112T122 209Q122 243 141 265T198 287Q230 287 249 268T269 224Q269 211 261 194T239 168Q260 147 309 147V309Q216 333 169 369T122 470Q122 538 170 580T309 632V691ZM229 492Q229 446 309 424V557Q276 554 253 537T229 492ZM487 216Q487 261 400 285V147Q438
147 462 164T487 216Z" />
<glyph unicode="%" glyph-name="percent" horiz-adv-x="1060" d="M94 505Q94 580 138 633T260 686Q313 686 362 649Q450 603 551 603Q662 603 718 665L737 686H845L302 0H189L632 554Q589 539 533 539Q465 539 419 562Q426 536 426 505Q426 431 382 378T260 324T139
377T94 505ZM212 575T212 505T222 409T260 382T297 408T308 505T298 601T260 628T223 602ZM717 168Q717 98 728 72T766 46T803 72T814 168T804 264T766 291T728 264T717 168ZM599 94T599 168T644 295T766 349T887 296T932 168Q932 93 888 41T766 -12T644 41Z" />
<glyph unicode="&amp;" glyph-name="ampersand" horiz-adv-x="907" d="M765 228H844V183Q844 85 810 36T694 -14Q614 -14 529 47Q431 -18 316 -18Q187 -18 116 35T44 181Q44 300 219 387Q179 443 179 519Q179 585 223 629T344 674Q418 674 459 636T501 542T471
451T371 374Q447 256 544 186Q588 232 588 297Q588 310 580 316T563 322H508V407H790V322H754Q726 322 716 314T698 281Q673 199 617 130Q641 110 668 99T711 88Q765 88 765 185V228ZM450 103Q327 208 258 308Q224 282 213 258T201 194Q201 137 236 104T317 70Q404
70 450 103ZM330 442Q390 476 390 540Q390 566 379 580T351 595Q331 595 319 579T307 531Q307 483 330 442Z" />
<glyph unicode="&apos;" glyph-name="quotesingle" horiz-adv-x="169" d="M140 691V458H29V691H140Z" />
<glyph unicode="(" glyph-name="parenleft" horiz-adv-x="389" d="M251 691H382Q223 483 223 230T382 -231H251Q191 -172 149 -104T87 28T59 140T51 230T59 319T87 431T149 563T251 691Z" />
<glyph unicode=")" glyph-name="parenright" horiz-adv-x="389" d="M138 -231H7Q166 -23 166 230T7 691H138Q198 632 240 564T302 432T330 320T338 230T330 141T302 29T240 -103T138 -231Z" />
<glyph unicode="*" glyph-name="asterisk" horiz-adv-x="590" d="M274 500L278 499Q278 525 253 558T228 618Q228 639 247 662T300 685Q327 685 349 667T372 618Q372 586 347 554T322 499L328 501Q348 509 362 531T393 569T437 586Q462 586 486 566T510 511Q510
484 491 463T440 442Q423 442 398 451T359 461Q352 461 337 457L341 452Q354 437 385 428T437 403T458 350Q458 322 437 300T383 278Q352 278 334 303T315 358Q315 373 315 384T312 407T300 431Q283 407 283 356Q283 327 269 303T215 278Q188 278 165 300T141 352Q141
379 156 395T190 418T230 432T260 451L264 457Q251 461 239 461Q224 461 198 452T155 442Q129 442 110 464T90 512Q90 539 110 562T159 586Q184 586 201 575T226 550T246 521T274 500Z" />
<glyph unicode="+" glyph-name="plus" horiz-adv-x="750" d="M34 355H314V606H436V355H716V267H436V16H314V267H34V355Z" />
<glyph unicode="," glyph-name="comma" horiz-adv-x="250" d="M91 -153L53 -114Q87 -87 115 -51T143 0Q128 -8 104 -8Q74 -8 54 10T34 62Q34 92 60 112T125 133Q168 133 192 105T216 42Q216 -50 91 -153Z" />
<glyph unicode="-" glyph-name="hyphenminus" horiz-adv-x="397" d="M69 212V290H328V212H69Z" />
<glyph unicode="." glyph-name="period" horiz-adv-x="250" d="M30 28T30 60T55 112T121 133T186 113T212 60T187 8T121 -13Q81 -13 56 7Z" />
<glyph unicode="/" glyph-name="slash" horiz-adv-x="570" d="M94 -46H-21L478 673H594L94 -46Z" />
<glyph unicode="0" glyph-name="zero" horiz-adv-x="658" d="M460 -16T329 -16T123 72T47 336Q47 512 122 599T329 686T536 599T611 336Q611 161 536 73ZM266 62T329 62T419 122T446 336Q446 495 420 551T329 608T238 552T212 336Q212 182 239 122Z" />
<glyph unicode="1" glyph-name="one" horiz-adv-x="658" d="M537 0H130V84H227Q261 84 261 127V523H130V602H219Q250 602 274 624T303 677H418V128Q418 105 423 95T449 84H537V0Z" />
<glyph unicode="2" glyph-name="two" horiz-adv-x="658" d="M522 234H606V223Q606 -9 445 -9Q394 -9 350 10T266 48T184 67Q155 67 137 51T119 0H33V31Q33 99 62 152T134 235T229 295T323 346T396 405T425 487Q425 548 387 578T291 608Q210 608 163 549Q195 549
217 529T240 473Q240 446 215 420T146 394Q101 394 74 423T46 495Q46 575 123 630T314 686Q384 686 445 666T549 597T593 480Q593 415 554 371T456 301T334 256T217 205T140 132Q196 160 247 160Q301 160 365 135T464 110Q522 110 522 226V234Z" />
<glyph unicode="3" glyph-name="three" horiz-adv-x="649" d="M261 306V383H283Q408 383 408 495Q408 548 377 578T297 608Q228 608 200 570Q226 557 237 543T249 501Q249 468 226 449T160 429T94 453T69 512Q69 584 141 635T317 686Q440 686 508 631T577 500Q577
446 540 405T440 346Q507 329 548 287T590 189Q590 107 521 46T325 -16Q208 -16 127 36T46 176Q46 215 74 240T149 266Q185 266 209 246T233 199Q233 122 157 115Q204 62 288 62Q359 62 390 93T422 194Q422 249 377 277T283 306H261Z" />
<glyph unicode="4" glyph-name="four" horiz-adv-x="639" d="M601 278V194H490V102Q490 84 509 84H582V0H231V84H321Q327 84 332 88T338 102V194H0V278L381 679H490V278H601ZM342 522L115 278H342V522Z" />
<glyph unicode="5" glyph-name="five" horiz-adv-x="635" d="M324 548Q240 548 171 568L160 392Q227 442 316 442Q381 442 432 426T513 386T562 331T588 274T595 222Q595 125 514 55T309 -16Q205 -16 126 29T46 149Q46 178 57 197T85 223T114 233T137 236Q174
236 199 215T225 165Q225 108 171 89Q208 62 286 62Q350 62 390 103T430 219Q430 284 389 324T287 364Q205 364 146 306L76 317L94 686Q138 677 169 671T225 662T276 656T335 654Q460 654 565 685Q556 637 545 617T509 583Q479 567 426 558T324 548Z" />
<glyph unicode="6" glyph-name="six" horiz-adv-x="658" d="M202 370Q269 420 361 420Q404 420 446 409T526 375T588 311T612 216Q612 105 531 45T334 -16Q206 -16 124 69T41 312Q41 363 49 411T79 510T137 599T232 661T368 686Q450 686 520 645T590 540Q590 507
571 483T518 458Q476 458 449 478T422 532Q422 575 460 592Q435 610 376 610Q291 610 249 542T202 370ZM330 343Q271 343 239 301T207 202Q207 139 242 101T331 62Q450 62 450 208Q450 272 419 307T330 343Z" />
<glyph unicode="7" glyph-name="seven" horiz-adv-x="619" d="M132 398H50V673H132V613Q147 648 181 663T247 679Q294 679 364 656T465 633Q489 633 500 641T516 673H584V653Q584 539 436 345Q299 167 299 26V0H127V26Q127 89 157 151T241 287Q269 325 363 420T482
558Q435 533 410 533Q349 533 296 549T226 565Q189 565 161 534T132 442V398Z" />
<glyph unicode="8" glyph-name="eight" horiz-adv-x="658" d="M195 350Q81 411 81 506Q81 586 149 636T335 686Q448 686 510 639T573 526Q573 422 449 364Q607 294 607 192Q607 152 595 119T552 53T462 3T317 -16Q196 -16 122 35T48 171Q48 239 88 279T195 350ZM361
409Q386 422 404 453T423 515Q423 560 398 586T328 613Q286 613 260 592T234 532Q234 452 361 409ZM291 300Q242 267 224 239T205 169Q205 126 237 94T337 62Q392 62 420 91T449 158Q449 205 410 238T291 300Z" />
<glyph unicode="9" glyph-name="nine" horiz-adv-x="658" d="M198 84Q227 62 283 62Q366 62 406 131T446 316Q384 259 287 259Q242 259 201 270T123 304T65 368T43 465Q43 571 120 628T308 686Q436 686 521 608T607 379V364Q607 306 599 256T569 154T513 67T421
7T289 -16Q196 -16 132 27T67 138Q67 175 95 201T165 228Q209 228 235 207T261 158Q261 92 198 84ZM205 465Q205 412 238 374T319 336Q381 336 411 367T441 472Q441 540 407 574T314 608Q266 608 236 571T205 465Z" />
<glyph unicode=":" glyph-name="colon" horiz-adv-x="250" d="M34 28T34 60T59 112T125 133T190 113T216 60T191 8T125 -13Q85 -13 60 7ZM34 348T34 380T59 432T125 453T190 433T216 380T191 328T125 307Q85 307 60 327Z" />
<glyph unicode=";" glyph-name="semicolon" horiz-adv-x="250" d="M91 -153L53 -114Q87 -87 115 -51T143 0Q128 -8 104 -8Q74 -8 54 10T34 62Q34 92 60 112T125 133Q168 133 192 105T216 42Q216 -50 91 -153ZM34 348T34 380T59 432T125 453T190 433T216 380T191
328T125 307Q85 307 60 327Z" />
<glyph unicode="&lt;" glyph-name="less" horiz-adv-x="658" d="M30 336L623 552V458L212 311L623 164V70L30 286V336Z" />
<glyph unicode="=" glyph-name="equal" horiz-adv-x="668" d="M38 428H631V344H38V428ZM38 281H631V197H38V281Z" />
<glyph unicode="&gt;" glyph-name="greater" horiz-adv-x="658" d="M628 286L35 70V164L446 311L35 458V552L628 336V286Z" />
<glyph unicode="?" glyph-name="question" horiz-adv-x="597" d="M313 183H244Q231 226 231 260Q231 297 246 326T282 376T326 415T363 463T378 526Q378 613 276 613Q216 613 182 577Q239 565 239 507Q239 480 217 461T159 442Q125 442 101 465T77 523Q77 583
145 637T301 691Q427 691 486 639T546 517Q546 468 522 434T464 379T396 339T337 285T313 202V183ZM207 28T207 60T232 112T298 133T363 113T389 60T364 8T298 -13Q258 -13 233 7Z" />
<glyph unicode="@" glyph-name="at" horiz-adv-x="1094" d="M737 562L875 527L791 284Q777 242 777 206Q777 179 802 179Q859 179 902 240T945 407Q945 543 848 632T558 721Q465 721 390 690T267 606T195 487T169 348Q169 172 273 73T562 -27Q742 -27 858 66L908
3Q830 -52 735 -81T565 -111Q325 -111 186 16T47 349Q47 415 67 480T131 605T233 710T376 783T556 811Q764 811 900 698T1037 411Q1037 332 1008 264T918 150T774 104Q721 104 692 116T637 162Q571 114 484 114Q390 114 333 167T275 295Q275 356 297 407T353 491T428
545T504 576T567 585Q672 585 722 528L737 562ZM624 248L689 450Q684 478 660 493T603 509Q542 509 491 450T440 299Q440 245 456 219T508 192T575 210T624 248Z" />
<glyph unicode="A" glyph-name="A" horiz-adv-x="817" d="M349 673H487L720 169Q757 89 778 89H797V0H495V89H560Q574 89 574 107Q574 116 565 134L530 211H225L189 134Q182 120 182 112Q182 102 189 96T202 89H282V0H8V89H25Q64 89 94 150L349 673ZM384 543L266
297H493L384 543Z" />
<glyph unicode="B" glyph-name="B" horiz-adv-x="797" d="M150 128V545Q150 584 107 584H47V673H454Q598 673 663 623T728 495Q728 411 623 356Q761 318 761 192Q761 94 683 47T464 0H47V89H107Q150 89 150 128ZM318 584V390H449Q560 390 560 496Q560 544 530
564T439 584H318ZM318 304V89H454Q590 89 590 198Q590 251 552 277T454 304H318Z" />
<glyph unicode="C" glyph-name="C" horiz-adv-x="790" d="M624 254H716Q710 134 634 58T417 -18Q326 -18 254 11T138 90T70 203T47 337Q47 491 150 591T417 691Q537 691 624 606L634 674H716V408H624Q618 507 558 554T417 602Q319 602 271 532T222 337Q222 221
268 146T417 71Q472 71 513 88T577 134T610 192T624 254Z" />
<glyph unicode="D" glyph-name="D" horiz-adv-x="843" d="M150 128V545Q150 584 107 584H47V673H417Q597 673 697 586T798 348Q798 193 701 97T445 0H47V89H107Q150 89 150 128ZM318 584V89H433Q542 89 582 153T623 346Q623 584 427 584H318Z" />
<glyph unicode="E" glyph-name="E" horiz-adv-x="830" d="M318 584V390H390Q423 390 432 398T441 442V487H533V204H441V251Q441 286 432 293T391 301H318V89H502Q599 89 629 115T659 229V282H751V0H47V89H107Q150 89 150 128V545Q150 584 107 584H47V673H751V398H659V472Q659
584 549 584H318Z" />
<glyph unicode="F" glyph-name="F" horiz-adv-x="770" d="M47 673H740V398H648V472Q648 584 538 584H318V390H390Q423 390 432 398T441 442V487H533V204H441V251Q441 286 432 293T391 301H318V128Q318 89 361 89H421V0H47V89H107Q150 89 150 128V545Q150 584 107
584H47V673Z" />
<glyph unicode="G" glyph-name="G" horiz-adv-x="847" d="M468 348H822V258H762Q742 258 736 250T729 220V0H620L603 52Q575 25 519 4T417 -18Q326 -18 254 11T137 90T69 203T46 337Q46 491 149 591T417 691Q537 691 624 606L634 674H716V408H624Q618 510 562
556T424 602Q325 602 273 531T221 337Q221 221 267 146T417 71Q494 71 540 103T587 207Q587 240 578 249T533 258H468V348Z" />
<glyph unicode="H" glyph-name="H" horiz-adv-x="936" d="M421 0H47V89H107Q150 89 150 128V545Q150 584 107 584H47V673H421V584H361Q318 584 318 545V390H618V545Q618 584 575 584H515V673H889V584H829Q786 584 786 545V128Q786 89 829 89H889V0H515V89H575Q618
89 618 128V304H318V128Q318 89 361 89H421V0Z" />
<glyph unicode="I" glyph-name="I" horiz-adv-x="468" d="M47 673H421V584H361Q318 584 318 545V128Q318 89 361 89H421V0H47V89H107Q150 89 150 128V545Q150 584 107 584H47V673Z" />
<glyph unicode="J" glyph-name="J" horiz-adv-x="600" d="M182 673H565V584H505Q462 584 462 545V188Q462 90 396 36T215 -18Q127 -18 70 25T12 139Q12 181 40 208T109 236Q158 236 183 213T208 154Q208 94 161 80Q179 71 214 71Q255 71 274 98T294 168V545Q294
584 253 584H182V673Z" />
<glyph unicode="K" glyph-name="K" horiz-adv-x="881" d="M47 673H421V584H361Q318 584 318 545V346L555 548Q569 559 569 571Q569 584 553 584H482V673H827V584H783Q729 584 695 555L515 405L780 131Q804 106 818 98T851 89H872V0H498V89H573Q592 89 592 103Q592
112 580 126L403 317L318 244V128Q318 89 361 89H421V0H47V89H107Q150 89 150 128V545Q150 584 107 584H47V673Z" />
<glyph unicode="L" glyph-name="L" horiz-adv-x="738" d="M46 673H420V584H360Q317 584 317 545V89H462Q559 89 589 115T619 229V282H711V0H46V89H106Q149 89 149 128V545Q149 584 106 584H46V673Z" />
<glyph unicode="M" glyph-name="M" horiz-adv-x="1052" d="M715 673H1010V584H950Q907 584 907 545V128Q907 89 950 89H1010V0H636V89H696Q739 89 739 128V500H736L540 0H452L254 500H251V128Q251 89 296 89H347V0H46V89H105Q128 89 143 99T159 128V545Q159 584
106 584H46V673H342L533 207L715 673Z" />
<glyph unicode="N" glyph-name="N" horiz-adv-x="910" d="M44 673H312L675 218V545Q675 584 628 584H558V673H878V584H818Q795 584 781 574T767 545V0H648L250 499V128Q250 89 294 89H354V0H44V89H106Q129 89 143 99T158 128V545Q158 584 107 584H44V673Z" />
<glyph unicode="O" glyph-name="O" horiz-adv-x="834" d="M417 691Q588 691 688 595T788 337Q788 180 686 81T417 -18Q326 -18 254 11T137 90T69 203T46 337Q46 491 150 591T417 691ZM417 602Q319 602 270 532T221 337Q221 221 267 146T417 71Q471 71 510 93T571
153T603 237T613 337Q613 465 568 533T417 602Z" />
<glyph unicode="P" glyph-name="P" horiz-adv-x="756" d="M421 0H47V89H107Q150 89 150 128V545Q150 584 107 584H47V673H468Q597 673 660 624T723 490Q723 403 660 350T468 296H318V128Q318 89 361 89H421V0ZM318 584V385H434Q552 385 552 490Q552 534 523 559T440
584H318Z" />
<glyph unicode="Q" glyph-name="Q" horiz-adv-x="869" d="M788 335Q788 246 755 179T649 52Q681 11 717 11Q740 11 754 32T769 97V126H858V80Q858 1 819 -53T698 -107Q638 -107 601 -83T525 -4Q454 -20 418 -20Q246 -20 147 83T48 335Q48 490 151 590T418 691Q586
691 687 594T788 335ZM222 335Q222 203 279 131Q279 181 312 214T398 247Q484 247 568 149Q614 210 614 335Q614 464 569 533T418 602Q320 602 271 531T222 335ZM418 69Q441 69 479 78Q454 120 435 138T386 156Q344 156 344 120Q344 97 363 83T418 69Z" />
<glyph unicode="R" glyph-name="R" horiz-adv-x="835" d="M150 128V545Q150 584 107 584H47V673H451Q725 673 725 487Q725 438 690 394T582 333Q693 293 693 161V105Q693 78 713 78Q719 78 724 84T729 100V199H810V86Q810 44 775 15T681 -14Q609 -14 568 24T527
120V170Q527 230 510 263T447 296H318V128Q318 89 361 89H421V0H47V89H107Q150 89 150 128ZM318 584V384H439Q554 384 554 491Q554 537 525 560T427 584H318Z" />
<glyph unicode="S" glyph-name="S" horiz-adv-x="700" d="M620 436H528Q528 507 465 555T330 603Q278 603 246 579T214 505Q214 463 250 445T358 414Q398 407 421 403T481 389T538 369T585 343T625 307T648 259T658 196Q658 99 582 41T389 -18Q255 -18 158 71L146
0H66V260H158V242Q158 180 225 126T379 71Q434 71 477 95T521 169Q521 212 475 235T326 276Q269 286 228 298T145 332T79 392T56 481Q56 575 127 633T311 691Q371 691 429 669T528 611L541 673H620V436Z" />
<glyph unicode="T" glyph-name="T" horiz-adv-x="760" d="M27 673H733V398H641V472Q641 584 531 584H464V128Q464 89 507 89H567V0H193V89H253Q296 89 296 128V584H229Q119 584 119 472V398H27V673Z" />
<glyph unicode="U" glyph-name="U" horiz-adv-x="868" d="M38 673H412V584H352Q309 584 309 545V222Q309 154 347 113T463 72Q540 72 587 112T634 236V545Q634 584 591 584H531V673H829V584H769Q726 584 726 545V253Q726 188 708 139T662 60T596 13T521 -12T445
-18Q304 -18 223 48T141 236V545Q141 584 98 584H38V673Z" />
<glyph unicode="V" glyph-name="V" horiz-adv-x="742" d="M472 673H749V584H726Q703 584 688 574T656 527L427 0H305L78 522Q61 560 51 572T24 584H0V673H297V584H264Q239 584 239 564Q239 552 247 534L403 165L562 540Q570 560 570 567Q570 584 548 584H472V673Z" />
<glyph unicode="W" glyph-name="W" horiz-adv-x="1047" d="M389 673H709V584H662Q650 584 650 567Q650 554 658 532L775 199L881 543Q885 554 885 564Q885 584 862 584H805V673H1049V584H1021Q984 584 967 530L805 0H690L525 461L372 0H255L69 537Q59 566 52 575T30
584H0V673H292V584H246Q227 584 227 568Q227 553 238 522L343 199L458 531Q465 551 465 565Q465 584 448 584H389V673Z" />
<glyph unicode="X" glyph-name="X" horiz-adv-x="881" d="M44 673H413V584H350Q336 584 336 573Q336 564 343 557L466 429L588 558Q595 565 595 573Q595 584 580 584H516V673H830V584H794Q733 584 699 550L523 369L757 125Q779 102 793 96T832 89H860V0H481V89H546Q566
89 566 106Q566 116 557 126L418 278L274 126Q265 117 265 107Q265 89 285 89H355V0H25V89H56Q80 89 106 98T146 121L360 337L147 551Q114 584 67 584H44V673Z" />
<glyph unicode="Y" glyph-name="Y" horiz-adv-x="687" d="M-2 673H328V584H264Q253 584 253 573Q253 564 260 554L382 393L484 554Q491 564 491 573Q491 584 481 584H414V673H696V584H657Q635 584 621 579T592 551L430 307V128Q430 89 473 89H533V0H161V89H221Q264
89 264 128V307L84 538Q60 569 50 576T16 584H-2V673Z" />
<glyph unicode="Z" glyph-name="Z" horiz-adv-x="756" d="M64 673H693V584L249 89H455Q552 89 582 115T612 229V282H704V0H54V89L509 584H266Q156 584 156 472V398H64V673Z" />
<glyph unicode="[" glyph-name="bracketleft" horiz-adv-x="398" d="M343 -193H55V673H343V584H223V-104H343V-193Z" />
<glyph unicode="\" glyph-name="backslash" horiz-adv-x="568" d="M449 -202L27 649L117 680L541 -172L449 -202Z" />
<glyph unicode="]" glyph-name="bracketright" horiz-adv-x="398" d="M55 673H342V-193H55V-104H174V584H55V673Z" />
<glyph unicode="^" glyph-name="asciicircum" horiz-adv-x="464" d="M232 574L134 497H-35L232 705L499 497H330L232 574Z" />
<glyph unicode="_" glyph-name="underscore" horiz-adv-x="660" d="M-26 -213V-135H686V-213H-26Z" />
<glyph unicode="`" glyph-name="grave" horiz-adv-x="325" d="M309 507L290 487L162 568Q157 571 135 583T104 602T84 621T74 647Q74 666 86 678T120 691Q135 691 149 683T170 667T191 642T208 621L309 507Z" />
<glyph unicode="a" glyph-name="a" horiz-adv-x="613" d="M256 408Q200 408 167 388Q205 371 205 339Q205 314 188 295T138 276Q105 276 85 296T64 345Q64 402 127 437T276 473Q370 473 434 433T498 320V82Q498 62 512 62Q528 62 528 82V159H593V82Q593 34 563
9T481 -16Q400 -16 374 54Q317 -16 203 -16Q131 -16 87 16T42 110Q42 174 88 205T223 250Q250 254 264 256T300 265T331 278T350 299T358 329Q358 368 328 388T256 408ZM358 166V230Q348 220 323 211T273 195Q237 183 217 166T196 115Q196 91 212 77T256 62Q304
62 331 91T358 166Z" />
<glyph unicode="b" glyph-name="b" horiz-adv-x="614" d="M210 413H213Q270 473 352 473Q454 473 514 405T575 233Q575 123 518 54T352 -16Q306 -16 263 5T196 63L163 0H69V566Q69 592 61 600T36 608H-4V686H213V458Q213 434 210 413ZM207 233Q211 144 242 103T318
62Q372 62 396 109T421 233Q421 303 397 349T324 395Q274 395 243 352T207 233Z" />
<glyph unicode="c" glyph-name="c" horiz-adv-x="556" d="M39 229Q39 336 108 404T294 473Q378 473 445 426T512 315Q512 283 493 261T439 239Q404 239 383 256T362 299Q362 344 409 363Q384 395 326 395Q267 395 230 349T193 229Q193 157 222 109T319 61Q366
61 395 89T434 159H516Q468 -16 292 -16Q175 -16 107 52T39 229Z" />
<glyph unicode="d" glyph-name="d" horiz-adv-x="646" d="M328 686H545V120Q545 94 553 86T578 78H618V0H401V47Q352 -16 259 -16Q157 -16 98 56T39 233Q39 346 106 409T259 473Q339 473 401 413V566Q401 592 393 600T368 608H328V686ZM407 233Q403 312 372 353T299
395Q251 395 222 353T193 233Q193 154 218 108T296 62Q346 62 374 106T407 233Z" />
<glyph unicode="e" glyph-name="e" horiz-adv-x="576" d="M532 212H193V203Q193 142 232 102T324 61Q412 61 447 159H530Q477 -16 299 -16Q178 -16 109 54T39 229Q39 290 61 338T120 414T202 458T296 473Q405 473 468 404T532 230V212ZM195 282H394Q388 395 298
395Q261 395 230 362T195 282Z" />
<glyph unicode="f" glyph-name="f" horiz-adv-x="404" d="M259 458H361V380H259V114Q259 78 292 78H361V0H42V78H82Q99 78 107 86T115 120V380H42V458H115V511Q115 590 162 640T297 691Q359 691 401 655T443 576Q443 543 423 521T372 498Q338 498 318 515T297
558Q297 594 333 611Q324 620 302 620Q283 620 267 601T250 552Q250 542 254 516T259 478V458Z" />
<glyph unicode="g" glyph-name="g" horiz-adv-x="638" d="M576 -60Q576 -119 534 -159T430 -215T294 -231Q239 -231 191 -225T101 -203T33 -161T8 -97Q8 -36 91 -9Q59 0 39 24T18 78Q18 111 42 135T104 173Q39 220 39 294Q39 374 108 423T281 473Q379 473 447
426Q492 482 548 482Q596 482 620 460T644 402Q644 373 628 352T582 330Q560 330 544 345T528 386Q528 407 536 426Q524 426 511 414T491 388Q521 350 521 294Q521 214 453 166T282 117Q207 117 156 143Q132 133 132 117Q132 80 191 80H362Q463 80 519 44T576 -60ZM282
395Q194 395 194 294Q194 248 217 222T282 195T347 221T371 294Q371 395 282 395ZM434 -76Q434 -43 396 -36T248 -28H178Q136 -49 136 -77Q136 -117 181 -134T293 -152Q434 -152 434 -76Z" />
<glyph unicode="h" glyph-name="h" horiz-adv-x="694" d="M318 0H28V78H68Q85 78 93 86T101 120V566Q101 592 93 600T68 608H28V686H245V409Q328 473 411 473Q436 473 461 468T519 449T572 401T593 320V120Q593 94 601 86T626 78H666V0H376V78H416Q433 78 441
86T449 120V318Q449 351 433 370T384 390Q320 390 245 323V120Q245 94 253 86T278 78H318V0Z" />
<glyph unicode="i" glyph-name="i" horiz-adv-x="350" d="M332 0H42V78H82Q99 78 107 86T115 120V338Q115 364 107 372T82 380H42V458H259V120Q259 94 267 86T292 78H332V0ZM82 569T82 600T110 652T178 673T246 652T274 600T247 548T178 527Q138 527 110 548Z" />
<glyph unicode="j" glyph-name="j" horiz-adv-x="331" d="M88 569T88 600T116 652T184 673T252 652T280 600T253 548T184 527Q144 527 116 548ZM45 458H262V-52Q262 -124 218 -177T79 -231Q4 -231 -43 -196T-90 -110Q-90 -74 -66 -50T-7 -26Q27 -26 51 -44T75
-86Q75 -111 69 -126T43 -151Q51 -155 66 -155Q87 -155 104 -137T122 -95Q122 -81 120 -54T118 -8V338Q118 364 110 372T85 380H45V458Z" />
<glyph unicode="k" glyph-name="k" horiz-adv-x="700" d="M28 686H245V258L382 356Q395 365 395 373Q395 380 381 380H356V458H647V380H594Q538 380 510 360L420 298L583 110Q611 78 650 78H672V0H367V78H414Q431 78 431 89Q431 95 426 101L320 229L245 177V120Q245
94 253 86T278 78H318V0H28V78H68Q85 78 93 86T101 120V566Q101 592 93 600T68 608H28V686Z" />
<glyph unicode="l" glyph-name="l" horiz-adv-x="336" d="M28 686H245V120Q245 94 253 86T278 78H318V0H28V78H68Q85 78 93 86T101 120V566Q101 592 93 600T68 608H28V686Z" />
<glyph unicode="m" glyph-name="m" horiz-adv-x="1030" d="M332 0H42V78H82Q99 78 107 86T115 120V338Q115 364 107 372T82 380H42V458H259V404Q338 472 414 472Q526 472 572 394Q618 432 662 452T763 472Q838 472 883 431T929 329V120Q929 94 937 86T962 78H1002V0H712V78H752Q769
78 777 86T785 120V314Q785 350 768 369T726 389Q693 389 664 373T594 318V120Q594 94 602 86T627 78H667V0H377V78H417Q434 78 442 86T450 120V314Q450 389 386 389Q323 389 259 319V120Q259 94 267 86T292 78H332V0Z" />
<glyph unicode="n" glyph-name="n" horiz-adv-x="708" d="M332 0H42V78H82Q99 78 107 86T115 120V338Q115 364 107 372T82 380H42V458H259V408Q343 473 425 473Q444 473 464 471T511 458T558 432T593 387T607 318V120Q607 94 615 86T640 78H680V0H390V78H430Q447
78 455 86T463 120V318Q463 351 447 370T398 390Q334 390 259 323V120Q259 94 267 86T292 78H332V0Z" />
<glyph unicode="o" glyph-name="o" horiz-adv-x="592" d="M411 -16T296 -16T110 55T39 230T110 403T296 473T482 404T553 230T482 55ZM245 62T296 62T372 101T397 230Q397 318 373 356T296 395T220 357T195 230Q195 140 220 101Z" />
<glyph unicode="p" glyph-name="p" horiz-adv-x="646" d="M318 -212H28V-134H68Q85 -134 93 -126T101 -92V338Q101 364 93 372T68 380H28V458H241V410Q266 439 305 456T386 473Q492 473 549 402T607 224Q607 111 541 48T387 -16Q305 -16 245 44V-92Q245 -118 253
-126T278 -134H318V-212ZM238 224Q242 146 275 105T351 63Q453 63 453 224Q453 395 354 395Q311 395 277 349T238 224Z" />
<glyph unicode="q" glyph-name="q" horiz-adv-x="614" d="M618 -212H328V-134H368Q385 -134 393 -126T401 -92V50Q382 21 344 3T265 -16Q166 -16 103 52T39 222Q39 332 100 402T270 473Q379 473 432 395L483 458H545V-92Q545 -118 553 -126T578 -134H618V-212ZM407
225Q407 311 378 353T298 395T221 347T193 224Q193 155 218 109T294 63Q343 63 372 106T407 225Z" />
<glyph unicode="r" glyph-name="r" horiz-adv-x="508" d="M255 458L252 410Q317 473 384 473Q433 473 462 445T491 375Q491 340 471 315T412 290Q381 290 362 307T343 353Q343 389 360 400Q303 393 259 314V120Q259 94 267 86T292 78H332V0H42V78H82Q99 78 107
86T115 120V338Q115 364 107 372T82 380H42V458H255Z" />
<glyph unicode="s" glyph-name="s" horiz-adv-x="543" d="M48 170H132Q142 123 188 92T289 61Q355 61 355 116Q355 137 332 149T274 166T199 181T123 204T65 249T42 329Q42 392 90 432T227 473Q271 473 319 457T398 411L405 458H474V297H398Q388 339 349 367T248
395Q222 395 204 383T185 347Q185 319 211 307T292 287Q334 281 364 273T429 248T481 202T500 134Q500 62 445 23T300 -16Q198 -16 126 49V0H48V170Z" />
<glyph unicode="t" glyph-name="t" horiz-adv-x="425" d="M130 615H228V458H355V380H228V111Q228 89 238 76T266 62Q281 62 294 75T307 112V159H382V119Q382 61 348 23T240 -16Q168 -16 126 19T84 121V380H15V448Q130 462 130 615Z" />
<glyph unicode="u" glyph-name="u" horiz-adv-x="694" d="M376 458H593V338V120Q593 94 601 86T626 78H666V0H449L452 52Q365 -15 283 -15Q264 -15 244 -13T197 0T150 26T115 71T101 140V338Q101 364 93 372T68 380H28V458H245V140Q245 107 261 88T310 68Q374
68 449 135V338Q449 364 441 372T416 380H376V458Z" />
<glyph unicode="v" glyph-name="v" horiz-adv-x="582" d="M10 458H281V380H232Q219 380 219 365Q219 354 224 345L326 140L434 349Q439 359 439 366Q439 380 422 380H366V458H582V380H566Q536 380 509 329L331 -6H248L73 333Q56 365 48 372T23 380H10V458Z" />
<glyph unicode="w" glyph-name="w" horiz-adv-x="852" d="M10 458H248V380H220Q203 380 203 364Q203 356 210 338L288 150L370 345Q375 358 375 364Q375 380 352 380H318V458H593V380H559Q542 380 542 365Q542 356 548 343L634 150L717 343Q723 356 723 366Q723
380 708 380H661V458H852V380H842Q815 380 799 343L647 -6H555L426 289L302 -6H205L59 334Q47 362 37 371T10 380V458Z" />
<glyph unicode="x" glyph-name="x" horiz-adv-x="668" d="M28 0V78H48Q62 78 71 79T96 89T133 115L259 222L131 348Q107 371 97 375T58 380H40V458H319V380H293Q286 380 286 375Q286 369 293 362L357 298L428 362Q436 369 436 375Q436 380 427 380H397V458H630V380H600Q566
380 533 352L411 247L544 116Q583 78 628 78H640V0H358V78H384Q394 78 394 86Q394 93 388 99L313 171L236 99Q231 94 231 88Q231 78 243 78H271V0H28Z" />
<glyph unicode="y" glyph-name="y" horiz-adv-x="596" d="M10 458H295V380H243Q226 380 226 365Q226 355 231 345L333 140L435 338Q445 358 445 367Q445 380 429 380H373V458H596V380H583Q543 380 516 329L279 -117Q249 -175 213 -203T122 -231Q64 -231 28 -195T-8
-109Q-8 -75 19 -51T82 -26Q113 -26 135 -45T158 -92Q158 -135 117 -149Q123 -155 134 -155Q147 -155 155 -153T178 -135T208 -90L254 -4L77 339Q62 367 54 373T25 380H10V458Z" />
<glyph unicode="z" glyph-name="z" horiz-adv-x="537" d="M415 195H495V0H28V78L324 380H206Q162 380 141 363T119 299V255H39V458H495V380L200 78H331Q380 78 397 93T415 153V195Z" />
<glyph unicode="{" glyph-name="braceleft" horiz-adv-x="402" d="M353 -151V-212H336Q283 -212 243 -199T182 -168T147 -124T129 -79T125 -39Q125 -26 134 23T143 82Q143 159 125 186T63 220V282Q106 289 124 316T143 420Q143 430 134 484T125 551Q125 571 129
589T146 631T181 672T243 702T336 714H353V653H336Q313 653 295 636T276 580Q276 558 282 513T288 456Q288 379 260 331T156 251Q232 220 260 172T288 46Q288 34 282 -11T276 -78Q276 -117 294 -134T336 -151H353Z" />
<glyph unicode="|" glyph-name="bar" horiz-adv-x="199" d="M39 -212V714H160V-212H39Z" />
<glyph unicode="}" glyph-name="braceright" horiz-adv-x="402" d="M49 653V714H66Q119 714 159 701T220 669T255 625T273 579T277 539Q277 526 268 478T259 420Q259 343 277 316T339 282V220Q296 213 278 186T259 82Q259 72 268 23T277 -41Q277 -61 273 -80T256
-125T221 -168T159 -199T66 -212H49V-151H66Q88 -151 105 -134T123 -78Q123 -56 119 -11T114 46Q114 123 142 171T246 251Q170 282 142 330T114 456Q114 468 118 513T123 580Q123 619 106 636T66 653H49Z" />
<glyph unicode="~" glyph-name="asciitilde" horiz-adv-x="593" d="M147 264H56Q56 310 101 343T212 376Q257 376 320 357T409 337Q421 337 433 346T446 376H537Q537 330 494 297T390 264Q346 264 278 283T182 303Q171 303 159 294T147 264Z" />
<glyph unicode="&#xa0;" glyph-name="nbspace" horiz-adv-x="360" />
<glyph unicode="&#xa4;" glyph-name="currency" horiz-adv-x="982" d="M58 72L202 193Q155 268 155 346T202 499L58 618L154 718L299 595Q384 652 491 652Q595 652 684 595L830 718L926 618L780 498Q827 423 827 346Q827 273 780 194L926 73L830 -26L685 97Q600
40 491 40Q384 40 299 97L154 -26L58 72ZM297 434T297 346T353 203T491 147T628 202T685 346T629 489T491 545T354 490Z" />
<glyph unicode="&#xa6;" glyph-name="brokenbar" horiz-adv-x="339" d="M89 -212V131H250V-212H89ZM89 330V673H250V330H89Z" />
<glyph unicode="&#xa7;" glyph-name="section" horiz-adv-x="595" d="M213 -108Q228 -119 276 -119Q318 -119 340 -103T363 -56Q363 -24 338 0T239 71L150 128Q32 204 32 281Q32 371 128 439Q93 474 93 538Q93 561 106 587T145 640T218 684T324 701Q402 701 461
662T521 570Q521 536 499 509T438 482Q393 482 370 502T346 554Q346 573 357 588T380 608Q365 619 330 619Q296 619 275 603T253 553Q253 520 275 499T363 434L450 378Q564 305 564 215Q564 133 472 72Q521 23 521 -44T448 -157T287 -203Q177 -203 117 -161T56
-68Q56 -32 81 -1T153 30Q198 30 225 7T253 -42Q253 -96 213 -108ZM413 126Q428 143 428 161Q428 219 360 264L275 321Q264 328 244 340T210 363T183 383Q166 364 166 343Q166 288 242 237L321 185Q326 182 359 162T413 126Z" />
<glyph unicode="&#xa8;" glyph-name="dieresis" horiz-adv-x="496" d="M47 568T47 600T72 652T138 673T203 653T229 600T204 548T138 527Q98 527 73 547ZM262 568T262 600T287 652T353 673T418 653T444 600T419 548T353 527Q313 527 288 547Z" />
<glyph unicode="&#xa9;" glyph-name="copyright" horiz-adv-x="956" d="M302 742T478 742T778 629T902 355T778 82T478 -32T178 81T54 355T178 628ZM605 480Q583 523 500 523Q435 523 402 477T369 353Q369 284 402 234T492 183Q539 183 576 209T624 297H721Q714
217 647 161T492 104Q374 104 290 177T206 353T290 528T492 601Q580 601 654 554T728 429Q728 402 703 378T638 354Q600 354 575 372T550 417Q550 470 605 480ZM478 680Q343 680 250 587T156 355T249 124T478 30T706 123T800 355Q800 489 706 584T478 680Z" />
<glyph unicode="&#xab;" glyph-name="guillemotleft" horiz-adv-x="660" d="M541 350L480 221L540 89L477 57L357 221L484 383L541 350ZM448 404L305 220L443 38L373 1L133 221L376 446L448 404Z" />
<glyph unicode="&#xac;" glyph-name="logicalnot" horiz-adv-x="794" d="M93 420H698V221H576V331H93V420Z" />
<glyph unicode="&#xae;" glyph-name="registered" horiz-adv-x="718" d="M45 431T45 556T137 769T359 858T580 770T672 556T581 343T359 254T137 342ZM115 556Q115 453 186 381T359 308T531 380T602 556Q602 658 532 730T359 803T186 731T115 556ZM363 664H319V578H348Q425
578 425 625Q425 664 363 664ZM190 664V701H375Q447 701 479 680T511 625Q511 602 492 581T429 553Q479 532 479 483Q479 454 490 454T501 476V490H546V474Q546 402 475 402Q399 402 399 487Q399 506 395 517T380 534T363 540T341 541H319V454Q319 446 329 446H367V409H190V446H230Q240
446 240 454V658Q240 664 233 664H190Z" />
<glyph unicode="&#xaf;" glyph-name="overscore" horiz-adv-x="397" d="M69 561V639H328V561H69Z" />
<glyph unicode="&#xb0;" glyph-name="degree" horiz-adv-x="282" d="M98 639T98 583T141 527T184 583T141 639ZM16 583Q16 630 52 660T141 691Q199 691 232 661T266 583T233 505T141 475T50 505T16 583Z" />
<glyph unicode="&#xb1;" glyph-name="plusminus" horiz-adv-x="825" d="M72 355H352V606H474V355H754V266H474V112H352V266H72V355ZM72 89H754V0H72V89Z" />
<glyph unicode="&#xb4;" glyph-name="acute" horiz-adv-x="293" d="M45 489L26 509L127 623Q131 628 144 644T164 668T186 685T215 693Q237 693 249 681T261 649Q261 626 230 604T173 570L45 489Z" />
<glyph unicode="&#xb6;" glyph-name="paragraph" horiz-adv-x="649" d="M612 -211H114V-122H174Q217 -122 217 -83V309Q135 317 75 362T15 489Q15 572 80 622T253 673H612V584H552Q509 584 509 545V-83Q509 -122 552 -122H612V-211ZM327 584V-122H399V584H327ZM217
400V579Q192 572 174 551T156 496Q156 413 217 400Z" />
<glyph unicode="&#xb7;" glyph-name="middot" horiz-adv-x="248" d="M34 314T34 347T60 403T124 427T187 404T214 347T188 291T124 267T61 290Z" />
<glyph unicode="&#xb8;" glyph-name="cedilla" horiz-adv-x="284" d="M158 0L136 -41Q145 -38 160 -38Q198 -38 226 -58T254 -116Q254 -161 224 -189T142 -218Q107 -218 73 -202T39 -149Q39 -130 51 -118T81 -105T111 -113T124 -135Q124 -161 100 -166Q112 -175
135 -175Q159 -175 170 -160T182 -122Q182 -101 166 -89T124 -76Q97 -76 69 -91L102 0H158Z" />
<glyph unicode="&#xbb;" glyph-name="guillemotright" horiz-adv-x="660" d="M180 221L119 350L176 383L303 221L183 57L120 89L180 221ZM355 220L212 404L284 446L527 221L287 1L217 38L355 220Z" />
<glyph unicode="&#x131;" glyph-name="dotlessi" horiz-adv-x="350" d="M322 0H42V78H82Q98 78 103 86T109 122V336Q109 364 104 372T82 380H42V458H255V122Q255 94 260 86T282 78H322V0Z" />
<glyph unicode="&#x141;" glyph-name="Lslash" horiz-adv-x="738" d="M46 673H420V584H360Q317 584 317 545V450L384 485L427 408L317 351V89H462Q559 89 589 115T619 229V282H711V0H46V89H106Q149 89 149 128V266L65 222L21 300L149 366V545Q149 584 106 584H46V673Z" />
<glyph unicode="&#x142;" glyph-name="lslash" horiz-adv-x="336" d="M28 686H245V445L295 471L335 394L245 349V120Q245 94 253 86T278 78H318V0H28V78H68Q85 78 93 86T101 120V271L41 241L1 318L101 368V566Q101 592 93 600T68 608H28V686Z" />
<glyph unicode="&#x152;" glyph-name="OE" horiz-adv-x="1328" d="M807 584V390H879Q912 390 921 398T930 442V487H1022V204H930V251Q930 286 921 293T880 301H807V89H1000Q1097 89 1127 115T1157 229V282H1249V0H653V71Q557 -18 417 -18Q326 -18 254 11T137 90T69
203T46 337Q46 491 150 591T417 691Q486 691 548 667T653 602V673H1249V398H1157V472Q1157 584 1047 584H807ZM417 602Q319 602 270 532T221 337Q221 221 267 146T417 71Q471 71 510 93T571 153T603 237T613 337Q613 465 568 533T417 602Z" />
<glyph unicode="&#x153;" glyph-name="oe" horiz-adv-x="979" d="M935 212H596V203Q596 142 635 102T727 61Q815 61 850 159H935Q882 -16 702 -16Q635 -16 581 9T492 78Q416 -16 296 -16Q181 -16 110 55T39 230T110 403T296 473Q419 473 496 377Q532 422 586 447T699
473Q808 473 871 404T935 230V212ZM245 62T296 62T372 101T397 230Q397 318 373 356T296 395T220 357T195 230Q195 140 220 101ZM701 395Q664 395 633 362T598 282H797Q791 395 701 395Z" />
<glyph unicode="&#x160;" glyph-name="Scaron" horiz-adv-x="700" d="M437 863H582L362 687Q459 672 528 611V673H620V436H528V458Q528 518 468 560T330 603Q278 603 246 579T214 505Q214 469 247 448T329 420T436 400T543 370T625 308T658 196Q658 99 581 41T389
-18Q254 -18 158 70V0H66V260H158V236Q158 175 228 123T386 70Q442 70 481 92T521 169Q521 206 487 229T401 260T289 283T177 315T91 375T56 481Q56 575 127 633T311 691Q339 691 360 687L140 863H285L361 808L437 863Z" />
<glyph unicode="&#x161;" glyph-name="scaron" horiz-adv-x="543" d="M355 673H500L279 496L58 673H203L279 618L355 673ZM48 170H132Q149 120 191 91T289 61Q355 61 355 116Q355 137 332 149T274 166T199 181T123 204T65 249T42 329Q42 392 90 432T227 473Q271
473 319 457T398 411V458H474V297H398Q388 339 349 367T248 395Q222 395 204 383T185 347T208 309T267 291T342 279T418 259T476 215T500 134Q500 62 445 23T300 -16Q198 -16 126 49V0H48V170Z" />
<glyph unicode="&#x17d;" glyph-name="Zcaron" horiz-adv-x="756" d="M64 673H693V584L249 89H455Q552 89 582 115T612 229V282H704V0H54V89L509 584H266Q156 584 156 472V398H64V673ZM462 863H607L386 686L165 863H310L386 808L462 863Z" />
<glyph unicode="&#x17e;" glyph-name="zcaron" horiz-adv-x="537" d="M344 673H489L268 496L47 673H192L268 618L344 673ZM28 0V78L324 380H206Q162 380 141 363T119 299V255H39V458H495V380L200 78H331Q380 78 397 93T415 153V195H495V0H28Z" />
<glyph unicode="&#x2c6;" glyph-name="circumflex" horiz-adv-x="458" d="M153 514H8L229 691L450 514H305L229 569L153 514Z" />
<glyph unicode="&#x2c7;" glyph-name="caron" horiz-adv-x="512" d="M332 691H477L256 514L35 691H180L256 636L332 691Z" />
<glyph unicode="&#x2d8;" glyph-name="breve" horiz-adv-x="512" d="M147 691Q204 603 256 603Q290 603 314 624T364 691H515Q475 609 411 558T256 507Q102 507 -3 691H147Z" />
<glyph unicode="&#x2d9;" glyph-name="dotaccent" horiz-adv-x="244" d="M47 568T47 600T72 652T138 673T203 653T229 600T204 548T138 527Q98 527 73 547Z" />
<glyph unicode="&#x2da;" glyph-name="ring" horiz-adv-x="304" d="M142 563T152 563T171 570T181 591T172 612T152 619T133 612T123 591T132 570ZM205 491T152 491T71 520T42 591T70 661T152 691T233 662T262 591T234 521Z" />
<glyph unicode="&#x2db;" glyph-name="ogonek" horiz-adv-x="267" d="M154 0H228Q164 -52 145 -79T125 -128Q125 -142 133 -148T152 -155Q178 -155 222 -125L245 -155Q213 -184 185 -198T116 -212T52 -193T27 -143Q27 -83 154 0Z" />
<glyph unicode="&#x2dc;" glyph-name="tilde" horiz-adv-x="565" d="M127 522H45Q45 595 84 635T185 676Q233 676 295 641T380 606Q424 606 424 666H506Q506 596 470 554T367 512Q325 512 263 546T173 581Q127 581 127 522Z" />
<glyph unicode="&#x2dd;" glyph-name="hungarumlaut" horiz-adv-x="515" d="M58 487L39 507L140 621Q144 626 157 642T177 666T199 683T228 691Q250 691 262 679T274 647Q274 634 264 622T245 603T213 584T186 568L58 487ZM262 487L243 507L344 621Q348 626 361
642T381 666T403 683T432 691Q454 691 466 679T478 647Q478 634 468 622T449 603T417 584T390 568L262 487Z" />
<glyph unicode="&#x3bc;" glyph-name="mu" horiz-adv-x="694" d="M449 137V338Q449 364 441 372T416 380H376V458H593V120Q593 94 601 86T626 78H666V0H449V47Q377 -17 286 -17Q215 -17 176 22Q176 -21 204 -73T233 -153Q233 -188 210 -209T148 -231Q106 -231
84 -203T62 -134Q62 -89 67 -49T81 25T101 106V338Q101 364 93 372T68 380H28V458H245V128Q245 66 307 66Q375 66 449 137Z" />
<glyph unicode="&#x401;" glyph-name="afii10023" horiz-adv-x="830" d="M463 741T463 773T488 825T554 846T619 826T645 773T620 721T554 700Q514 700 489 720ZM201 741T201 773T226 825T292 846T357 826T383 773T358 721T292 700Q252 700 227 720ZM318 584V390H390Q423
390 432 398T441 442V487H533V204H441V251Q441 286 432 293T391 301H318V89H502Q599 89 629 115T659 229V282H751V0H47V89H107Q150 89 150 128V545Q150 584 107 584H47V673H751V398H659V472Q659 584 549 584H318Z" />
<glyph unicode="&#x402;" glyph-name="afii10051" horiz-adv-x="952" d="M41 673H747V458H655V472Q655 584 545 584H478V383Q574 414 663 414Q776 414 854 359T932 213Q932 98 866 40T684 -18Q599 -18 544 25T489 140Q489 180 517 206T587 233Q635 233 660 210T685
154Q685 98 638 81Q653 72 677 72Q715 72 737 106T760 208Q760 325 632 325Q555 325 478 290V197Q463 160 463 130Q463 93 483 57T538 0H207V89H267Q310 89 310 128V584H243Q133 584 133 472V398H41V673Z" />
<glyph unicode="&#x403;" glyph-name="afii10052" horiz-adv-x="741" d="M250 710L234 734L374 820Q400 839 424 851T478 863Q523 863 523 820Q523 799 506 787T442 762L250 710ZM47 673H686V398H594V472Q594 584 484 584H318V128Q318 89 361 89H421V0H47V89H107Q150
89 150 128V545Q150 584 107 584H47V673Z" />
<glyph unicode="&#x404;" glyph-name="afii10053" horiz-adv-x="779" d="M623 254H715Q709 134 633 58T416 -18Q244 -18 145 86T46 337Q46 491 149 591T416 691Q536 691 623 606L633 673H715V408H623Q617 507 557 554T416 602Q331 602 282 546T224 390H522V304H222Q224
204 274 138T416 71Q471 71 512 88T576 134T609 192T623 254Z" />
<glyph unicode="&#x405;" glyph-name="afii10054" horiz-adv-x="700" d="M620 436H528Q528 507 465 555T330 603Q278 603 246 579T214 505Q214 463 250 445T358 414Q398 407 421 403T481 389T538 369T585 343T625 307T648 259T658 196Q658 99 582 41T389 -18Q255
-18 158 71L146 0H66V260H158V242Q158 180 225 126T379 71Q434 71 477 95T521 169Q521 212 475 235T326 276Q269 286 228 298T145 332T79 392T56 481Q56 575 127 633T311 691Q371 691 429 669T528 611L541 673H620V436Z" />
<glyph unicode="&#x406;" glyph-name="afii10055" horiz-adv-x="468" d="M47 673H421V584H361Q318 584 318 545V128Q318 89 361 89H421V0H47V89H107Q150 89 150 128V545Q150 584 107 584H47V673Z" />
<glyph unicode="&#x407;" glyph-name="afii10056" horiz-adv-x="468" d="M29 741T29 773T54 825T120 846T185 826T211 773T186 721T120 700Q80 700 55 720ZM257 741T257 773T282 825T348 846T413 826T439 773T414 721T348 700Q308 700 283 720ZM47 673H421V584H361Q318
584 318 545V128Q318 89 361 89H421V0H47V89H107Q150 89 150 128V545Q150 584 107 584H47V673Z" />
<glyph unicode="&#x408;" glyph-name="afii10057" horiz-adv-x="600" d="M182 673H565V584H505Q462 584 462 545V188Q462 90 396 36T215 -18Q127 -18 70 25T12 139Q12 181 40 208T109 236Q158 236 183 213T208 154Q208 94 161 80Q179 71 214 71Q255 71 274 98T294
168V545Q294 584 253 584H182V673Z" />
<glyph unicode="&#x409;" glyph-name="afii10058" horiz-adv-x="1242" d="M763 545V390H939Q1062 390 1138 342T1215 197Q1215 0 946 0H492V89H552Q595 89 595 128V584H420Q402 584 395 577T388 543V421Q388 208 348 106Q326 51 280 19T173 -14Q102 -14 51 28T0
139Q0 180 26 208T94 236Q143 236 167 214T192 156Q192 130 175 112T127 89Q139 70 175 70Q240 70 268 146T296 409V517Q296 551 273 567T209 584H157V673H866V584H806Q763 584 763 545ZM763 304V89H909Q1044 89 1044 198Q1044 304 909 304H763Z" />
<glyph unicode="&#x40a;" glyph-name="afii10059" horiz-adv-x="1275" d="M533 673H907V584H847Q804 584 804 545V390H971Q1094 390 1170 342T1247 197Q1247 0 978 0H533V89H593Q636 89 636 128V304H318V128Q318 89 361 89H421V0H47V89H107Q150 89 150 128V545Q150
584 107 584H47V673H421V584H361Q318 584 318 545V390H636V545Q636 584 593 584H533V673ZM804 304V89H941Q1076 89 1076 198Q1076 304 941 304H804Z" />
<glyph unicode="&#x40b;" glyph-name="afii10060" horiz-adv-x="1043" d="M47 673H753V458H661V472Q661 584 551 584H484V383Q580 414 676 414Q784 414 854 372T925 254V128Q925 89 968 89H1028V0H654V89H714Q757 89 757 128V248Q757 325 644 325Q561 325 484
290V128Q484 89 527 89H587V0H213V89H273Q316 89 316 128V584H249Q139 584 139 472V398H47V673Z" />
<glyph unicode="&#x40c;" glyph-name="afii10061" horiz-adv-x="865" d="M382 710L366 734L506 820Q532 839 556 851T610 863Q655 863 655 820Q655 799 638 787T574 762L382 710ZM421 0H47V89H107Q150 89 150 128V545Q150 584 107 584H47V673H421V584H361Q318
584 318 545V390H379Q458 390 492 416T526 498V529Q526 602 568 644T679 686Q745 686 782 655T819 573Q819 539 798 516T744 493T691 509T670 549Q670 584 700 595Q693 605 676 605Q670 605 662 602T643 592T625 569T617 528V508Q617 394 547 360Q626 340 664 293T702
166V106Q702 79 722 79Q728 79 733 85T738 101V200H819V87Q819 45 784 16T690 -13Q618 -13 577 25T536 121V175Q536 197 535 212T529 246T514 276T485 296T440 304H318V128Q318 89 361 89H421V0Z" />
<glyph unicode="&#x40e;" glyph-name="afii10062" horiz-adv-x="802" d="M516 765Q498 767 487 780T475 814Q475 837 495 853T551 869Q592 869 615 849T638 798Q638 755 589 720T437 685T286 720T236 798Q236 829 259 849T323 869Q358 869 378 853T399 814Q399
794 388 781T358 765Q380 750 437 750T516 765ZM501 673H771V584H761Q742 584 717 566T674 514L485 140Q442 54 393 21T283 -13Q198 -13 149 37T99 144Q99 181 124 210T192 240Q233 240 255 217T277 164Q277 133 259 116T215 95Q228 68 280 68Q346 68 374 126L121
537Q102 568 83 576T31 584H15V673H374V584H317Q286 584 286 565Q286 554 296 537L455 271L585 530Q595 550 595 564Q595 584 572 584H501V673Z" />
<glyph unicode="&#x40f;" glyph-name="afii10145" horiz-adv-x="936" d="M515 673H889V584H829Q786 584 786 545V128Q786 89 829 89H889V0H653Q514 0 514 -114V-205H422V-114Q422 0 283 0H47V89H107Q150 89 150 128V545Q150 584 107 584H47V673H421V584H361Q318
584 318 545V89H618V545Q618 584 575 584H515V673Z" />
<glyph unicode="&#x410;" glyph-name="afii10017" horiz-adv-x="817" d="M349 673H487L720 169Q757 89 778 89H797V0H495V89H560Q574 89 574 107Q574 116 565 134L530 211H225L189 134Q182 120 182 112Q182 102 189 96T202 89H282V0H8V89H25Q64 89 94 150L349
673ZM384 543L266 297H493L384 543Z" />
<glyph unicode="&#x411;" glyph-name="afii10018" horiz-adv-x="797" d="M318 584V390H485Q608 390 684 342T761 197Q761 0 492 0H47V89H107Q150 89 150 128V545Q150 584 107 584H47V673H712V432H620V471Q620 523 592 553T510 584H318ZM318 304V89H454Q521 89
555 117T590 198Q590 253 552 278T451 304H318Z" />
<glyph unicode="&#x412;" glyph-name="afii10019" horiz-adv-x="797" d="M150 128V545Q150 584 107 584H47V673H454Q598 673 663 623T728 495Q728 411 623 356Q761 318 761 192Q761 94 683 47T464 0H47V89H107Q150 89 150 128ZM318 584V390H449Q560 390 560 496Q560
544 530 564T439 584H318ZM318 304V89H454Q590 89 590 198Q590 251 552 277T454 304H318Z" />
<glyph unicode="&#x413;" glyph-name="afii10020" horiz-adv-x="713" d="M47 673H686V398H594V472Q594 584 484 584H318V128Q318 89 361 89H421V0H47V89H107Q150 89 150 128V545Q150 584 107 584H47V673Z" />
<glyph unicode="&#x414;" glyph-name="afii10021" horiz-adv-x="847" d="M98 673H800V584H740Q697 584 697 545V89H800V-205H708V-118Q708 -64 681 -32T598 0H215Q159 0 132 -32T105 -118V-205H13V89H105Q231 235 231 513Q231 552 214 567T152 583H98V673ZM529
89V583H363Q348 583 341 581T329 565T323 525Q323 393 301 297T227 89H529Z" />
<glyph unicode="&#x415;" glyph-name="afii10022" horiz-adv-x="830" d="M47 673H751V398H659V472Q659 584 549 584H318V390H390Q423 390 432 398T441 442V487H533V204H441V251Q441 286 432 293T391 301H318V89H502Q599 89 629 115T659 229V282H751V0H47V89H107Q150
89 150 128V545Q150 584 107 584H47V673Z" />
<glyph unicode="&#x416;" glyph-name="afii10024" horiz-adv-x="1214" d="M785 0H429V89H488Q509 89 516 98T523 128V304H424Q398 304 379 296T351 277T336 246T329 212T328 175V121Q328 64 287 26T174 -13Q116 -13 81 15T45 87V200H126V101Q126 91 131 85T142
79Q162 79 162 106V166Q162 246 200 293T317 360Q247 394 247 508V528Q247 552 240 568T221 592T202 602T188 605Q171 605 164 595Q194 584 194 549Q194 526 174 510T120 493T66 516T45 573Q45 623 82 654T185 686Q253 686 295 644T338 529V498Q338 443 372 417T485
390H523V545Q523 567 517 575T489 584H429V673H785V584H725Q704 584 698 576T691 545V390H729Q808 390 842 416T876 498V529Q876 602 918 644T1029 686Q1095 686 1132 655T1169 573Q1169 539 1148 516T1094 493T1041 509T1020 549Q1020 584 1050 595Q1043 605 1026
605Q1020 605 1012 602T993 592T975 569T967 528V508Q967 394 897 360Q976 340 1014 293T1052 166V106Q1052 79 1072 79Q1078 79 1083 85T1088 101V200H1169V87Q1169 45 1134 16T1040 -13Q968 -13 927 25T886 121V175Q886 197 885 212T879 246T864 276T835 296T790
304H691V128Q691 106 698 98T725 89H785V0Z" />
<glyph unicode="&#x417;" glyph-name="afii10025" horiz-adv-x="692" d="M495 354V352Q572 333 614 291T657 189Q657 96 578 39T347 -18Q225 -18 136 46T47 189Q47 232 74 259T148 287Q184 287 210 265T237 215Q237 184 218 165T169 144Q187 111 233 91T334 71Q393
71 439 104T486 201Q486 249 442 276T323 304H301V390H318Q349 390 377 399T428 439T452 514Q452 551 423 575T351 600Q278 600 230 554T167 407H75V673H152L167 600Q250 688 371 688Q498 688 559 634T620 505Q620 399 495 354Z" />
<glyph unicode="&#x418;" glyph-name="afii10026" horiz-adv-x="946" d="M421 0H47V89H107Q150 89 150 128V545Q150 584 107 584H47V673H421V584H361Q318 584 318 545V312Q318 289 313 259L604 502Q628 523 628 545Q628 584 585 584H525V673H899V584H839Q796 584
796 545V128Q796 89 839 89H899V0H525V89H585Q628 89 628 128V375Q628 391 632 413L340 170Q318 152 318 128Q318 89 361 89H421V0Z" />
<glyph unicode="&#x419;" glyph-name="afii10027" horiz-adv-x="946" d="M421 0H47V89H107Q150 89 150 128V545Q150 584 107 584H47V673H421V584H361Q318 584 318 545V312Q318 289 313 259L604 502Q628 523 628 545Q628 584 585 584H525V673H899V584H839Q796 584
796 545V128Q796 89 839 89H899V0H525V89H585Q628 89 628 128V375Q628 391 632 413L340 170Q318 152 318 128Q318 89 361 89H421V0ZM552 765Q534 767 523 780T511 814Q511 837 531 853T587 869Q628 869 651 849T674 798Q674 755 625 720T473 685T322 720T272 798Q272
829 295 849T359 869Q394 869 414 853T435 814Q435 794 424 781T394 765Q416 750 473 750T552 765Z" />
<glyph unicode="&#x41a;" glyph-name="afii10028" horiz-adv-x="864" d="M421 0H47V89H107Q150 89 150 128V545Q150 584 107 584H47V673H421V584H361Q318 584 318 545V390H379Q458 390 492 416T526 498V529Q526 602 568 644T679 686Q745 686 782 655T819 573Q819
539 798 516T744 493T691 509T670 549Q670 584 700 595Q693 605 676 605Q670 605 662 602T643 592T625 569T617 528V508Q617 394 547 360Q626 340 664 293T702 166V106Q702 79 722 79Q728 79 733 85T738 101V200H819V87Q819 45 784 16T690 -13Q618 -13 577 25T536
121V175Q536 197 535 212T529 246T514 276T485 296T440 304H318V128Q318 89 361 89H421V0Z" />
<glyph unicode="&#x41b;" glyph-name="afii10029" horiz-adv-x="910" d="M863 0H489V89H549Q592 89 592 128V584H426Q414 584 409 583T399 572T394 543V421Q394 208 354 106Q332 51 286 19T179 -14Q108 -14 57 28T6 139Q6 180 32 208T100 236Q149 236 173 214T198
156Q198 130 181 112T133 89Q145 70 181 70Q246 70 274 146T302 409V517Q302 551 279 567T215 584H163V673H863V584H803Q760 584 760 545V128Q760 89 803 89H863V0Z" />
<glyph unicode="&#x41c;" glyph-name="afii10030" horiz-adv-x="1052" d="M715 673H1005V584H945Q902 584 902 545V128Q902 89 945 89H1005V0H631V89H691Q734 89 734 128V508H730L533 0H442L245 508H241V128Q241 89 284 89H344V0H46V89H106Q149 89 149 128V545Q149
584 106 584H46V673H336L525 207H529L715 673Z" />
<glyph unicode="&#x41d;" glyph-name="afii10031" horiz-adv-x="936" d="M421 0H47V89H107Q150 89 150 128V545Q150 584 107 584H47V673H421V584H361Q318 584 318 545V390H618V545Q618 584 575 584H515V673H889V584H829Q786 584 786 545V128Q786 89 829 89H889V0H515V89H575Q618
89 618 128V304H318V128Q318 89 361 89H421V0Z" />
<glyph unicode="&#x41e;" glyph-name="afii10032" horiz-adv-x="834" d="M417 691Q588 691 688 595T788 337Q788 180 686 81T417 -18Q326 -18 254 11T137 90T69 203T46 337Q46 491 150 591T417 691ZM417 602Q319 602 270 532T221 337Q221 221 267 146T417 71Q471
71 510 93T571 153T603 237T613 337Q613 465 568 533T417 602Z" />
<glyph unicode="&#x41f;" glyph-name="afii10033" horiz-adv-x="936" d="M421 0H47V89H107Q150 89 150 128V545Q150 584 107 584H47V673H889V584H829Q786 584 786 545V128Q786 89 829 89H889V0H515V89H575Q618 89 618 128V584H318V128Q318 89 361 89H421V0Z" />
<glyph unicode="&#x420;" glyph-name="afii10034" horiz-adv-x="756" d="M421 0H47V89H107Q150 89 150 128V545Q150 584 107 584H47V673H468Q597 673 660 624T723 490Q723 403 660 350T468 296H318V128Q318 89 361 89H421V0ZM318 584V385H434Q552 385 552 490Q552
534 523 559T440 584H318Z" />
<glyph unicode="&#x421;" glyph-name="afii10035" horiz-adv-x="790" d="M624 254H716Q710 134 634 58T417 -18Q326 -18 254 11T138 90T70 203T47 337Q47 491 150 591T417 691Q537 691 624 606L634 674H716V408H624Q618 507 558 554T417 602Q319 602 271 532T222
337Q222 221 268 146T417 71Q472 71 513 88T577 134T610 192T624 254Z" />
<glyph unicode="&#x422;" glyph-name="afii10036" horiz-adv-x="760" d="M27 673H733V398H641V472Q641 584 531 584H464V128Q464 89 507 89H567V0H193V89H253Q296 89 296 128V584H229Q119 584 119 472V398H27V673Z" />
<glyph unicode="&#x423;" glyph-name="afii10037" horiz-adv-x="781" d="M15 673H374V584H317Q286 584 286 565Q286 554 296 537L455 268L575 530Q585 553 585 564Q585 584 562 584H491V673H771V584H751Q731 584 706 566T664 514L485 140Q411 -13 283 -13Q198
-13 149 37T99 144Q99 181 124 210T192 240Q233 240 255 217T277 164Q277 133 259 116T215 95Q228 68 280 68Q346 68 374 126L121 537Q102 568 83 576T31 584H15V673Z" />
<glyph unicode="&#x424;" glyph-name="afii10038" horiz-adv-x="945" d="M661 0H284V89H344Q389 89 389 130H317Q179 130 109 195T38 346T108 495T317 559H389Q389 589 344 589H284V678H661V589H601Q556 589 556 559H628Q766 559 836 496T907 346T837 195T628
130H556Q556 89 601 89H661V0ZM389 212V477H352Q281 477 246 448T210 346Q210 271 245 242T352 212H389ZM556 477V212H593Q665 212 700 241T735 346Q735 419 700 448T593 477H556Z" />
<glyph unicode="&#x425;" glyph-name="afii10039" horiz-adv-x="881" d="M44 673H413V584H350Q336 584 336 573Q336 564 346 554L466 429L583 552Q595 564 595 572Q595 584 580 584H520V673H830V584H799Q737 584 703 550L523 369L757 125Q779 102 793 96T832 89H860V0H481V89H549Q569
89 569 106Q569 116 560 126L418 278L271 126Q262 117 262 107Q262 89 282 89H355V0H25V89H56Q80 89 106 98T146 121L360 337L147 551Q114 584 67 584H44V673Z" />
<glyph unicode="&#x426;" glyph-name="afii10040" horiz-adv-x="937" d="M721 0H47V89H107Q150 89 150 128V545Q150 584 107 584H47V673H421V584H361Q318 584 318 545V89H619V545Q619 584 576 584H516V673H890V584H830Q787 584 787 545V89H923V-205H831V-112Q831
0 721 0Z" />
<glyph unicode="&#x427;" glyph-name="afii10041" horiz-adv-x="886" d="M839 0H425V89H525Q568 89 568 128V296Q474 259 380 259Q272 259 204 301T136 420V545Q136 584 93 584H33V673H407V584H347Q304 584 304 545V437Q304 348 421 348Q490 348 568 382V545Q568
584 525 584H465V673H839V584H779Q736 584 736 545V128Q736 89 779 89H839V0Z" />
<glyph unicode="&#x428;" glyph-name="afii10042" horiz-adv-x="1284" d="M47 673H421V584H361Q318 584 318 545V89H558V545Q558 584 515 584H455V673H829V584H769Q726 584 726 545V89H966V545Q966 584 923 584H863V673H1237V584H1177Q1134 584 1134 545V128Q1134
89 1177 89H1237V0H47V89H107Q150 89 150 128V545Q150 584 107 584H47V673Z" />
<glyph unicode="&#x429;" glyph-name="afii10043" horiz-adv-x="1284" d="M47 673H412V584H352Q309 584 309 545V89H558V545Q558 584 515 584H455V673H829V584H769Q726 584 726 545V89H966V545Q966 584 923 584H863V673H1237V584H1177Q1134 584 1134 545V89H1237V-205H1145V-112Q1145
0 1035 0H47V89H107Q150 89 150 128V545Q150 584 107 584H47V673Z" />
<glyph unicode="&#x42a;" glyph-name="afii10044" horiz-adv-x="955" d="M470 545V390H646Q769 390 845 342T922 197Q922 0 653 0H199V89H259Q302 89 302 128V584H229Q119 584 119 472V398H27V673H573V584H513Q470 584 470 545ZM470 304V89H616Q751 89 751 198Q751
304 616 304H470Z" />
<glyph unicode="&#x42b;" glyph-name="afii10045" horiz-adv-x="1182" d="M318 545V390H485Q608 390 684 342T761 197T689 50T482 0H47V89H107Q150 89 150 128V545Q150 584 107 584H47V673H421V584H361Q318 584 318 545ZM318 304V89H455Q590 89 590 198Q590 304
455 304H318ZM761 673H1135V584H1075Q1032 584 1032 545V128Q1032 89 1075 89H1135V0H761V89H821Q864 89 864 128V545Q864 584 821 584H761V673Z" />
<glyph unicode="&#x42c;" glyph-name="afii10046" horiz-adv-x="794" d="M318 545V390H485Q608 390 684 342T761 197Q761 0 492 0H47V89H107Q150 89 150 128V545Q150 584 107 584H47V673H421V584H361Q318 584 318 545ZM318 304V89H455Q590 89 590 198Q590 304
455 304H318Z" />
<glyph unicode="&#x42d;" glyph-name="afii10047" horiz-adv-x="763" d="M241 304V390H541Q528 489 481 545T347 602Q267 602 207 555T140 408H48V673H130L140 606Q227 691 347 691Q511 691 613 591T716 337Q716 193 615 88T358 -18Q226 -18 134 47T42 195Q42
234 70 259T145 285Q181 285 205 265T229 218Q229 156 168 140Q197 103 233 87T330 70Q434 70 485 135T541 304H241Z" />
<glyph unicode="&#x42e;" glyph-name="afii10048" horiz-adv-x="1222" d="M318 390H438Q456 524 556 607T805 691Q976 691 1076 595T1176 337Q1176 180 1074 81T805 -18Q637 -18 541 74T435 304H318V128Q318 89 361 89H421V0H47V89H107Q150 89 150 128V545Q150
584 107 584H47V673H421V584H361Q318 584 318 545V390ZM805 602Q707 602 658 532T609 337Q609 221 655 146T805 71Q859 71 898 93T959 153T991 237T1001 337Q1001 465 956 533T805 602Z" />
<glyph unicode="&#x42f;" glyph-name="afii10049" horiz-adv-x="843" d="M796 0H422V89H482Q525 89 525 128V296H396Q350 296 333 263T316 170V120Q316 63 275 25T162 -14Q104 -14 69 14T33 86V199H114V100Q114 90 119 84T130 78Q150 78 150 105V161Q150 293 261
333Q185 351 147 395T108 497Q108 673 392 673H796V584H736Q693 584 693 545V128Q693 89 736 89H796V0ZM525 384V584H416Q279 584 279 491Q279 440 311 412T404 384H525Z" />
<glyph unicode="&#x430;" glyph-name="afii10065" horiz-adv-x="613" d="M256 408Q200 408 167 388Q205 371 205 339Q205 314 188 295T138 276Q105 276 85 296T64 345Q64 402 127 437T276 473Q370 473 434 433T498 320V82Q498 62 512 62Q528 62 528 82V159H593V82Q593
34 563 9T481 -16Q400 -16 374 54Q317 -16 203 -16Q131 -16 87 16T42 110Q42 174 88 205T223 250Q250 254 264 256T300 265T331 278T350 299T358 329Q358 368 328 388T256 408ZM358 166V230Q348 220 323 211T273 195Q237 183 217 166T196 115Q196 91 212 77T256
62Q304 62 331 91T358 166Z" />
<glyph unicode="&#x431;" glyph-name="afii10066" horiz-adv-x="602" d="M309 537Q226 537 183 501T139 380Q205 472 326 472Q439 472 501 405T563 232Q563 128 492 56T308 -16Q189 -16 121 60T53 286Q53 482 114 565T307 649H359Q420 649 434 655T449 690H530Q530
537 365 537H309ZM308 394Q259 394 232 351T205 232T230 110T308 62Q359 62 383 109T407 232Q407 394 308 394Z" />
<glyph unicode="&#x432;" glyph-name="afii10067" horiz-adv-x="612" d="M259 202V78H337Q429 78 429 142Q429 202 341 202H259ZM42 458H341Q442 458 495 427T549 342Q549 313 527 284T456 240Q518 226 548 198T579 133Q579 61 528 31T361 0H42V78H82Q99 78 107
86T115 120V338Q115 364 107 372T82 380H42V458ZM259 380V277H335Q371 277 390 289T409 333Q409 360 389 370T319 380H259Z" />
<glyph unicode="&#x433;" glyph-name="afii10068" horiz-adv-x="547" d="M332 0H42V78H82Q99 78 107 86T115 120V338Q115 364 107 372T82 380H42V458H519V255H439V299Q439 345 418 362T352 380H259V120Q259 94 267 86T292 78H332V0Z" />
<glyph unicode="&#x434;" glyph-name="afii10069" horiz-adv-x="660" d="M451 0H195Q152 0 130 -20T108 -87V-143H28V78H101Q182 171 182 334Q182 380 126 380H83V458H624V380H584Q566 380 559 372T551 338V78H618V-143H538V-87Q538 -40 516 -20T451 0ZM407 78V380H287Q262
380 262 345Q262 190 204 78H407Z" />
<glyph unicode="&#x435;" glyph-name="afii10070" horiz-adv-x="576" d="M532 212H193V203Q193 142 232 102T324 61Q412 61 447 159H532Q479 -16 299 -16Q178 -16 109 54T39 229Q39 290 61 338T120 414T202 458T296 473Q405 473 468 404T532 230V212ZM195 282H394Q388
395 298 395Q261 395 230 362T195 282Z" />
<glyph unicode="&#x436;" glyph-name="afii10072" horiz-adv-x="970" d="M620 0H350V78H385Q402 78 407 85T413 120V202H400Q345 202 316 188T286 129V101Q286 53 256 19T155 -16Q93 -16 69 15T45 84V159H110V84Q110 62 123 62Q142 62 142 94V129Q142 181 179
208T266 244Q213 271 213 343V361Q213 374 207 387T187 401Q177 401 169 396Q179 386 179 367Q178 345 162 327T118 308Q84 308 65 327T45 375Q45 422 75 447T165 473T257 442T291 362V342Q291 302 315 290T393 277H413V338Q413 365 408 372T385 380H350V458H620V380H585Q568
380 563 373T557 338V277H577Q631 277 655 289T679 342V362Q679 410 712 441T805 473T894 448T925 375Q925 346 906 327T852 308Q824 308 808 326T791 367Q791 386 801 396Q793 401 783 401Q770 401 764 388T757 361V343Q757 271 704 244Q754 235 791 208T828 129V94Q828
62 847 62Q860 62 860 84V159H925V84Q925 46 901 15T815 -16Q744 -16 714 18T684 101V129Q684 174 655 188T570 202H557V120Q557 93 562 86T585 78H620V0Z" />
<glyph unicode="&#x437;" glyph-name="afii10073" horiz-adv-x="524" d="M371 241V240Q425 231 458 203T491 129Q491 88 469 58T411 12T338 -9T263 -16Q178 -16 111 28T44 140Q44 171 64 193T118 215Q153 215 173 199T194 157T180 117T144 100Q171 59 245 59Q288
59 313 80T339 137Q339 202 239 202H216V277H248Q286 277 306 294T326 340Q326 368 306 383T259 399Q219 399 190 371T152 294H76V458H131L145 424Q194 473 273 473Q369 473 415 435T462 349Q462 269 371 241Z" />
<glyph unicode="&#x438;" glyph-name="afii10074" horiz-adv-x="736" d="M42 458H332V380H292Q274 380 267 372T259 338V217Q259 202 255 191L460 339Q477 350 477 364Q477 380 455 380H404V458H694V380H654Q636 380 629 372T621 338V120Q621 94 629 86T654 78H694V0H404V78H444Q461
78 469 86T477 120V271L278 124Q259 110 259 98Q259 78 282 78H332V0H42V78H82Q99 78 107 86T115 120V338Q115 364 107 372T82 380H42V458Z" />
<glyph unicode="&#x439;" glyph-name="afii10075" horiz-adv-x="736" d="M42 458H332V380H292Q274 380 267 372T259 338V217Q259 202 255 191L460 339Q477 350 477 364Q477 380 455 380H404V458H694V380H654Q636 380 629 372T621 338V120Q621 94 629 86T654 78H694V0H404V78H444Q461
78 469 86T477 120V271L278 124Q259 110 259 98Q259 78 282 78H332V0H42V78H82Q99 78 107 86T115 120V338Q115 364 107 372T82 380H42V458ZM310 558T368 558T447 572Q430 574 419 588T407 624Q407 644 426 658T476 673Q512 673 538 654T565 608Q565 564 517 530T368
495T219 529T171 608Q171 635 195 654T254 673Q285 673 307 659T329 624Q329 603 318 589T289 572Q310 558 368 558Z" />
<glyph unicode="&#x43a;" glyph-name="afii10076" horiz-adv-x="681" d="M332 0H42V78H82Q99 78 107 86T115 120V338Q115 364 107 372T82 380H42V458H332V380H292Q274 380 267 372T259 338V277H288Q342 277 366 289T390 342V362Q390 409 424 441T513 473Q570 473
603 447T636 375Q636 346 618 327T565 308Q536 308 519 325T502 364Q502 387 518 399Q512 403 502 403Q488 403 478 389T468 361V343Q468 271 415 244Q465 235 502 208T539 129V94Q539 62 558 62Q571 62 571 84V159H636V84Q636 68 632 53T618 21T584 -6T528 -16Q457
-16 426 18T395 101V129Q395 174 366 188T281 202H259V120Q259 94 267 86T292 78H332V0Z" />
<glyph unicode="&#x43b;" glyph-name="afii10077" horiz-adv-x="719" d="M136 458H677V380H637Q619 380 612 372T604 338V120Q604 94 612 86T637 78H677V0H387V78H427Q444 78 452 86T460 120V380H329Q312 380 312 364V277Q312 223 309 184T295 105T266 41T215
1T137 -15Q79 -15 45 20T10 104Q10 138 35 162T97 187Q129 187 151 169T173 124Q173 81 132 67Q138 61 149 61Q189 61 210 105T232 270V335Q232 380 175 380H136V458Z" />
<glyph unicode="&#x43c;" glyph-name="afii10078" horiz-adv-x="827" d="M293 458L422 198L551 458H785V380H745Q727 380 720 372T712 338V120Q712 94 720 86T745 78H785V0H495V78H535Q552 78 560 86T568 120V302Q568 311 570 325H568L408 0H359L201 325H199V120Q199
95 209 87T238 78H278V0H42V78H82Q101 78 111 86T121 120V338Q121 363 111 371T82 380H42V458H293Z" />
<glyph unicode="&#x43d;" glyph-name="afii10079" horiz-adv-x="722" d="M680 0H390V78H430Q447 78 455 86T463 120V202H259V120Q259 94 267 86T292 78H332V0H42V78H82Q99 78 107 86T115 120V338Q115 364 107 372T82 380H42V458H332V380H292Q274 380 267 372T259
338V277H463V338Q463 364 455 372T430 380H390V458H680V380H640Q622 380 615 372T607 338V120Q607 94 615 86T640 78H680V0Z" />
<glyph unicode="&#x43e;" glyph-name="afii10080" horiz-adv-x="592" d="M411 -16T296 -16T110 55T39 230T110 403T296 473T482 404T553 230T482 55ZM245 62T296 62T372 101T397 230Q397 318 373 356T296 395T220 357T195 230Q195 140 220 101Z" />
<glyph unicode="&#x43f;" glyph-name="afii10081" horiz-adv-x="722" d="M332 0H42V78H82Q99 78 107 86T115 120V338Q115 364 107 372T82 380H42V458H680V380H640Q622 380 615 372T607 338V120Q607 94 615 86T640 78H680V0H390V78H430Q447 78 455 86T463 120V380H259V120Q259
94 267 86T292 78H332V0Z" />
<glyph unicode="&#x440;" glyph-name="afii10082" horiz-adv-x="646" d="M318 -212H28V-134H68Q85 -134 93 -126T101 -92V338Q101 364 93 372T68 380H28V458H241V410Q266 439 305 456T386 473Q492 473 549 402T607 224Q607 111 541 48T387 -16Q304 -16 245 43V-92Q245
-118 253 -126T278 -134H318V-212ZM238 224Q243 146 275 105T351 63Q453 63 453 224Q453 395 354 395Q311 395 277 348T238 224Z" />
<glyph unicode="&#x441;" glyph-name="afii10083" horiz-adv-x="556" d="M39 229Q39 336 108 404T294 473Q363 473 424 438Q465 415 488 382T512 315Q512 283 493 261T439 239Q404 239 383 256T362 299Q362 344 409 363Q387 395 326 395Q267 395 230 349T193 229Q193
157 222 109T319 61Q366 61 395 89T434 159H516Q468 -16 292 -16Q175 -16 107 52T39 229Z" />
<glyph unicode="&#x442;" glyph-name="afii10084" horiz-adv-x="614" d="M452 0H162V78H202Q219 78 227 86T235 120V380H195Q151 380 130 363T108 299V255H28V458H586V255H506V299Q506 345 485 362T419 380H379V120Q379 94 387 86T412 78H452V0Z" />
<glyph unicode="&#x443;" glyph-name="afii10085" horiz-adv-x="596" d="M10 458H295V380H243Q226 380 226 365Q226 355 231 345L333 140L435 338Q445 358 445 367Q445 380 429 380H373V458H596V380H583Q543 380 516 329L279 -117Q249 -175 213 -203T122 -231Q64
-231 28 -195T-8 -109Q-8 -75 19 -51T82 -26Q113 -26 135 -45T158 -92Q158 -135 117 -149Q123 -155 134 -155Q147 -155 155 -153T177 -135T208 -90L255 -6L77 339Q62 367 54 373T25 380H10V458Z" />
<glyph unicode="&#x444;" glyph-name="afii10086" horiz-adv-x="956" d="M623 -212H333V-134H373Q390 -134 398 -126T406 -92V43Q347 -16 259 -16Q172 -16 106 47T39 224Q39 331 96 402T260 473Q302 473 341 456T406 410V566Q406 592 398 600T373 608H333V686H550V410Q575
439 614 456T696 473Q802 473 859 402T917 224Q917 111 851 48T697 -16Q609 -16 550 43V-92Q550 -118 558 -126T583 -134H623V-212ZM548 224Q552 146 585 105T661 63Q763 63 763 224Q763 395 664 395Q621 395 587 349T548 224ZM408 224Q404 302 370 348T292 395Q193
395 193 224Q193 63 295 63Q338 63 371 104T408 224Z" />
<glyph unicode="&#x445;" glyph-name="afii10087" horiz-adv-x="668" d="M28 0V78H48Q62 78 71 79T96 89T133 115L259 222L131 348Q107 371 97 375T58 380H40V458H319V380H293Q286 380 286 375Q286 369 293 362L357 298L428 362Q436 369 436 375Q436 380 427 380H397V458H630V380H600Q566
380 533 352L411 247L544 116Q583 78 628 78H640V0H358V78H384Q394 78 394 86Q394 93 388 99L313 171L236 99Q231 94 231 88Q231 78 243 78H271V0H28Z" />
<glyph unicode="&#x446;" glyph-name="afii10088" horiz-adv-x="720" d="M390 458H680V380H640Q622 380 615 372T607 338V78H693V-143H613V-81Q613 -35 592 -18T526 0H42V78H82Q99 78 107 86T115 120V338Q115 364 107 372T82 380H42V458H332V380H292Q274 380 267
372T259 338V78H463V338Q463 364 455 372T430 380H390V458Z" />
<glyph unicode="&#x447;" glyph-name="afii10089" horiz-adv-x="665" d="M623 0H303V78H373Q390 78 398 86T406 120V181Q338 152 263 152Q195 152 141 182T86 276V338Q86 364 78 372T53 380H13V458H303V380H263Q245 380 238 372T230 338V282Q230 226 295 226Q352
226 406 248V338Q406 364 398 372T373 380H333V458H623V380H583Q565 380 558 372T550 338V120Q550 94 558 86T583 78H623V0Z" />
<glyph unicode="&#x448;" glyph-name="afii10090" horiz-adv-x="1044" d="M42 458H332V380H292Q274 380 267 372T259 338V78H450V338Q450 364 442 372T417 380H377V458H667V380H627Q609 380 602 372T594 338V78H785V338Q785 364 777 372T752 380H712V458H1002V380H962Q944
380 937 372T929 338V120Q929 94 937 86T962 78H1002V0H42V78H82Q99 78 107 86T115 120V338Q115 364 107 372T82 380H42V458Z" />
<glyph unicode="&#x449;" glyph-name="afii10091" horiz-adv-x="1043" d="M42 458H332V380H292Q274 380 267 372T259 338V78H450V338Q450 364 442 372T417 380H377V458H667V380H627Q609 380 602 372T594 338V78H785V338Q785 364 777 372T752 380H712V458H1002V380H962Q944
380 937 372T929 338V78H1015V-143H935V-81Q935 -35 914 -18T848 0H42V78H82Q99 78 107 86T115 120V338Q115 364 107 372T82 380H42V458Z" />
<glyph unicode="&#x44a;" glyph-name="afii10092" horiz-adv-x="723" d="M380 201V78H458Q505 78 525 92T545 140Q545 177 527 189T458 201H380ZM28 458H453V380H413Q395 380 388 372T380 338V279H480Q697 279 697 139Q697 78 647 39T479 0H163V78H203Q220 78
228 86T236 120V380H195Q151 380 130 363T108 299V255H28V458Z" />
<glyph unicode="&#x44b;" glyph-name="afii10093" horiz-adv-x="910" d="M259 201V78H337Q384 78 402 92T421 140Q421 178 404 189T337 201H259ZM42 458H332V380H292Q274 380 267 372T259 338V279H359Q573 279 573 139Q573 0 358 0H42V78H82Q99 78 107 86T115
120V338Q115 364 107 372T82 380H42V458ZM868 0H578V78H618Q635 78 643 86T651 120V338Q651 364 643 372T618 380H578V458H868V380H828Q810 380 803 372T795 338V120Q795 94 803 86T828 78H868V0Z" />
<glyph unicode="&#x44c;" glyph-name="afii10094" horiz-adv-x="602" d="M259 201V78H337Q384 78 404 92T424 140Q424 177 406 189T337 201H259ZM42 458H332V380H292Q274 380 267 372T259 338V279H359Q576 279 576 139Q576 78 526 39T358 0H42V78H82Q99 78 107
86T115 120V338Q115 364 107 372T82 380H42V458Z" />
<glyph unicode="&#x44d;" glyph-name="afii10095" horiz-adv-x="556" d="M60 458H117L134 426Q195 473 264 473Q381 473 449 405T517 228Q517 121 448 53T262 -16Q177 -16 111 30T44 142Q44 174 63 196T117 218Q152 218 173 201T194 158Q194 115 151 97Q184 60
239 60Q299 60 330 97T364 201H229V279H362Q353 331 322 363T237 396Q166 396 134 329V289H60V458Z" />
<glyph unicode="&#x44e;" glyph-name="afii10096" horiz-adv-x="897" d="M259 277H348Q365 364 432 418T601 473Q716 473 787 404T858 230T787 55T601 -16Q495 -16 426 45T346 202H259V120Q259 94 267 86T292 78H332V0H42V78H82Q99 78 107 86T115 120V338Q115
364 107 372T82 380H42V458H332V380H292Q274 380 267 372T259 338V277ZM550 62T601 62T677 101T702 230Q702 318 678 356T601 395T525 357T500 230Q500 140 525 101Z" />
<glyph unicode="&#x44f;" glyph-name="afii10097" horiz-adv-x="656" d="M614 0H324V78H364Q381 78 389 86T397 120V202H380Q326 202 299 188T271 129V101Q271 53 240 19T138 -16Q76 -16 51 15T25 84V159H90V84Q90 74 94 68T104 62Q125 62 125 94V129Q125 205
220 233V235Q153 240 118 269T83 344Q83 395 137 426T315 458H614V380H574Q556 380 549 372T541 338V120Q541 94 549 86T574 78H614V0ZM397 277V380H329Q280 380 257 370T233 332Q233 277 317 277H397Z" />
<glyph unicode="&#x451;" glyph-name="afii10071" horiz-adv-x="549" d="M94 568T94 600T119 652T185 673T250 653T276 600T251 548T185 527Q145 527 120 547ZM309 568T309 600T334 652T400 673T465 653T491 600T466 548T400 527Q360 527 335 547ZM532 212H193V203Q193
142 232 102T324 61Q412 61 447 159H530Q477 -16 299 -16Q178 -16 109 54T39 229Q39 290 61 338T120 414T202 458T296 473Q405 473 468 404T532 230V212ZM195 282H394Q388 395 298 395Q261 395 230 362T195 282Z" />
<glyph unicode="&#x452;" glyph-name="afii10099" horiz-adv-x="655" d="M324 0H34V78H74Q91 78 99 86T107 120V499H1V571H107Q107 595 102 601T80 608H40V686H251V571H379V499H251V409Q339 473 423 473Q448 473 473 468T531 449T584 401T605 320V-52Q605 -86
597 -115T571 -171T518 -215T433 -231Q355 -231 305 -197T255 -110Q255 -74 280 -50T341 -26Q375 -26 397 -43T420 -86T414 -126T388 -151Q396 -155 411 -155Q432 -155 449 -136T467 -91Q467 -77 464 -49T461 -3V318Q461 351 445 370T396 390Q326 390 251 323V120Q251
94 259 86T284 78H324V0Z" />
<glyph unicode="&#x453;" glyph-name="afii10100" horiz-adv-x="547" d="M232 487L211 509L309 620Q311 622 329 646T362 680T398 691Q420 691 434 678T448 647Q448 634 438 622T418 602T387 584T360 568L232 487ZM332 0H42V78H82Q99 78 107 86T115 120V338Q115
364 107 372T82 380H42V458H519V255H439V299Q439 345 418 362T352 380H259V120Q259 94 267 86T292 78H332V0Z" />
<glyph unicode="&#x454;" glyph-name="afii10101" horiz-adv-x="559" d="M200 277H308V202H194Q197 137 227 95T320 53Q367 53 396 81T435 151H517Q469 -24 293 -24Q176 -24 108 44T40 221Q40 328 109 396T295 465Q364 465 425 430Q466 407 489 374T513 307Q513
275 494 253T440 231Q405 231 384 248T363 291Q363 336 410 355Q388 387 327 387Q280 387 247 358T200 277Z" />
<glyph unicode="&#x455;" glyph-name="afii10102" horiz-adv-x="543" d="M48 170H132Q142 123 188 92T289 61Q355 61 355 116Q355 137 332 149T274 166T199 181T123 204T65 249T42 329Q42 392 90 432T227 473Q271 473 319 457T398 411L405 458H474V297H398Q388
339 349 367T248 395Q222 395 204 383T185 347Q185 319 211 307T292 287Q334 281 364 273T429 248T481 202T500 134Q500 62 445 23T300 -16Q198 -16 126 49V0H48V170Z" />
<glyph unicode="&#x456;" glyph-name="afii10103" horiz-adv-x="350" d="M332 0H42V78H82Q99 78 107 86T115 120V338Q115 364 107 372T82 380H42V458H259V120Q259 94 267 86T292 78H332V0ZM82 569T82 600T110 652T178 673T246 652T274 600T247 548T178 527Q138
527 110 548Z" />
<glyph unicode="&#x457;" glyph-name="afii10104" horiz-adv-x="359" d="M-29 568T-29 600T-4 652T62 673T127 653T153 600T128 548T62 527Q22 527 -3 547ZM181 568T181 600T206 652T272 673T337 653T363 600T338 548T272 527Q232 527 207 547ZM322 0H42V78H82Q98
78 103 86T109 122V336Q109 364 104 372T82 380H42V458H255V122Q255 94 260 86T282 78H322V0Z" />
<glyph unicode="&#x458;" glyph-name="afii10105" horiz-adv-x="331" d="M88 569T88 600T116 652T184 673T252 652T280 600T253 548T184 527Q144 527 116 548ZM45 458H262V-52Q262 -124 218 -177T79 -231Q4 -231 -43 -196T-90 -110Q-90 -74 -66 -50T-7 -26Q27
-26 51 -44T75 -86Q75 -111 69 -126T43 -151Q51 -155 66 -155Q87 -155 104 -137T122 -95Q122 -81 120 -54T118 -8V338Q118 364 110 372T85 380H45V458Z" />
<glyph unicode="&#x459;" glyph-name="afii10106" horiz-adv-x="962" d="M136 458H686V380H646Q628 380 621 372T613 338V279H713Q930 279 930 139Q930 78 880 39T712 0H396V78H436Q453 78 461 86T469 120V380H329Q327 380 325 380T318 376T313 364V277Q313 223
310 184T295 105T266 41T215 1T137 -15Q79 -15 45 20T10 104Q10 138 35 162T97 187Q129 187 151 169T173 124Q173 81 132 67Q138 61 149 61Q189 61 211 106T233 270V335Q233 380 175 380H136V458ZM613 201V78H691Q738 78 758 92T778 140Q778 177 760 189T691 201H613Z"
/>
<glyph unicode="&#x45a;" glyph-name="afii10107" horiz-adv-x="952" d="M392 458H682V380H642Q624 380 617 372T609 338V277H709Q926 277 926 139Q926 78 876 39T708 0H392V78H432Q449 78 457 86T465 120V202H261V120Q261 94 269 86T294 78H334V0H44V78H84Q101
78 109 86T117 120V338Q117 364 109 372T84 380H44V458H334V380H294Q276 380 269 372T261 338V277H465V338Q465 364 457 372T432 380H392V458ZM609 202V78H687Q734 78 754 92T774 140Q774 178 755 190T687 202H609Z" />
<glyph unicode="&#x45b;" glyph-name="afii10108" horiz-adv-x="704" d="M322 0H32V78H72Q89 78 97 86T105 120V499H-1V571H105Q105 595 100 601T78 608H38V686H249V571H377V499H249V409Q337 473 421 473Q446 473 471 468T529 449T582 401T603 320V120Q603 94
611 86T636 78H676V0H386V78H426Q443 78 451 86T459 120V318Q459 351 443 370T394 390Q324 390 249 323V120Q249 94 257 86T282 78H322V0Z" />
<glyph unicode="&#x45c;" glyph-name="afii10109" horiz-adv-x="690" d="M267 487L248 507L349 621Q353 626 366 642T386 666T408 683T437 691Q459 691 471 679T483 647Q483 624 452 602T395 568L267 487ZM332 0H42V78H82Q99 78 107 86T115 120V338Q115 364 107
372T82 380H42V458H332V380H292Q274 380 267 372T259 338V277H288Q342 277 366 289T390 342V362Q390 409 424 441T513 473Q570 473 603 447T636 375Q636 346 618 327T565 308Q536 308 519 325T502 364Q502 387 518 399Q512 403 502 403Q488 403 478 389T468 361V343Q468
271 415 244Q465 235 502 208T539 129V94Q539 62 558 62Q571 62 571 84V159H636V84Q636 68 632 53T618 21T584 -6T528 -16Q457 -16 426 18T395 101V129Q395 174 366 188T281 202H259V120Q259 94 267 86T292 78H332V0Z" />
<glyph unicode="&#x45e;" glyph-name="afii10110" horiz-adv-x="630" d="M277 557T335 557T414 571Q397 573 386 587T374 623Q374 643 395 657T447 672Q482 672 507 653T532 607Q532 563 484 529T335 494T186 528T138 607Q138 634 162 653T221 672Q252 672 274
658T296 623Q296 602 285 588T256 571Q277 557 335 557ZM10 458H296V380H243Q226 380 226 365Q226 355 231 345L333 140L435 338Q445 358 445 367Q445 380 429 380H374V458H596V380H583Q543 380 516 329L279 -117Q249 -175 213 -203T122 -231Q64 -231 28 -195T-8
-109Q-8 -75 19 -51T82 -26Q113 -26 135 -45T158 -92Q158 -135 117 -149Q123 -155 134 -155Q147 -155 155 -153T178 -135T208 -90L254 -4L77 339Q62 367 54 373T25 380H10V458Z" />
<glyph unicode="&#x45f;" glyph-name="afii10193" horiz-adv-x="726" d="M42 458H332V380H292Q274 380 267 372T259 338V78H462V338Q462 364 454 372T429 380H389V458H679V380H639Q621 380 614 372T606 338V120Q606 94 614 86T639 78H679V0H499Q449 0 424 -22T399
-96V-143H322V-96Q322 0 236 0H42V78H82Q99 78 107 86T115 120V338Q115 364 107 372T82 380H42V458Z" />
<glyph unicode="&#x462;" glyph-name="afii10146" horiz-adv-x="949" d="M464 541V390H640Q763 390 839 342T916 197Q916 0 647 0H193V89H253Q296 89 296 128V541H229Q119 541 119 429V355H27V630H296V691H464V630H733V437H641Q641 482 614 511T531 541H464ZM464
304V89H610Q745 89 745 198Q745 304 610 304H464Z" />
<glyph unicode="&#x463;" glyph-name="afii10194" horiz-adv-x="733" d="M384 201V78H462Q509 78 529 92T549 140Q549 177 531 189T462 201H384ZM384 673V458H588V380H384V279H484Q701 279 701 139Q701 78 651 39T483 0H167V78H207Q224 78 232 86T240 120V380H195Q151
380 130 363T108 299V255H28V458H240V673H384Z" />
<glyph unicode="&#x490;" glyph-name="afii10050" horiz-adv-x="708" d="M317 584V128Q317 89 360 89H420V0H46V89H106Q149 89 149 128V545Q149 584 106 584H46V673H521Q593 673 593 751V807H685V516H593V552Q593 584 560 584H317Z" />
<glyph unicode="&#x491;" glyph-name="afii10098" horiz-adv-x="540" d="M322 0H42V78H82Q98 78 103 85T109 120V338Q109 365 104 372T82 380H42V458H375Q418 458 428 468T439 520V566H519V348H439Q439 369 434 374T406 380H255V120Q255 93 260 86T282 78H322V0Z" />
</font>
</defs>
</svg>
